<?xml version="1.0" encoding="utf-8"?><svg xmlns="http://www.w3.org/2000/svg" xmlns:xml="http://www.w3.org/XML/1998/namespace" xmlns:xlink="http://www.w3.org/1999/xlink" version="1.1" x="0px" y="0px" width="242.6px" height="153.1px" viewBox="0 0 242.6 153.1" xml:space="preserve" style="enable-background: new 0 0 242.6 153.1"><style type="text/css"><![CDATA[
	.st0{fill:#FFFFFF;}
	.st1{fill:#E30613;}
	.st2{font-family:'FiraSans-Bold';}
	.st3{font-size:15px;}
	.st4{fill:#3D3D3C;}
	.st5{fill:#AA182C;}
]]></style><font horiz-adv-x="1000"><font-face units-per-em="1000" underline-position="-75" underline-thickness="50" style="font-family: FiraSans-Bold" /><missing-glyph horiz-adv-x="666" d="M543,1050l0,-1400l-420,0l0,1400M489,998l-311,0l0,-1296l311,0M435,336C435,301 428,273 413,254C398,235 373,223 340,218l0,-45C340,166 338,160 333,156C328,151 322,149 315,149C308,149 303,151 298,156C293,160 290,166 290,173l0,84C325,259 349,266 362,277C375,288 381,307 381,334C381,356 377,373 368,385C359,397 343,403 320,403C301,403 283,399 268,392C263,390 258,389 255,389C248,389 242,391 238,396C233,400 231,405 231,412C231,425 241,434 261,441C280,448 301,451 324,451C364,451 393,440 410,419C427,398 435,370 435,336M350,85C350,74 347,66 340,59C333,52 325,48 315,48C305,48 297,52 290,59C283,66 280,74 280,85C280,95 283,103 290,110C297,117 305,120 315,120C325,120 333,117 340,110C347,103 350,95 350,85z" /><glyph unicode=" " horiz-adv-x="237" /><glyph unicode=" " horiz-adv-x="237" /><glyph unicode="A" horiz-adv-x="590" d="M430,0l-36,149l-202,0l-35,-149l-170,0l209,693l199,0l209,-693M220,268l146,0l-73,306z" /><glyph unicode="Á" horiz-adv-x="590" d="M430,0l-36,149l-202,0l-35,-149l-170,0l209,693l199,0l209,-693M220,268l146,0l-73,306M377,956l59,-118l-240,-87l-40,80z" /><glyph unicode="Ă" horiz-adv-x="590" d="M430,0l-36,149l-202,0l-35,-149l-170,0l209,693l199,0l209,-693M220,268l146,0l-73,306M123,913l87,15C217,907 227,891 241,879C255,866 273,860 295,860C317,860 335,866 349,879C363,891 374,907 381,928l87,-15C464,868 447,829 416,798C385,767 345,751 295,751C245,751 205,767 175,798C144,829 127,868 123,913z" /><glyph unicode="Ắ" horiz-adv-x="590" d="M430,0l-36,149l-202,0l-35,-149l-170,0l209,693l199,0l209,-693M220,268l146,0l-73,306M124,899l87,15C218,893 228,877 242,865C256,852 274,846 296,846C318,846 336,852 350,865C364,877 375,893 382,914l87,-15C465,854 448,815 417,784C386,753 346,737 296,737C246,737 206,753 176,784C145,815 128,854 124,899M370,1125l86,-84l-158,-141l-60,54z" /><glyph unicode="Ặ" horiz-adv-x="590" d="M430,0l-36,149l-202,0l-35,-149l-170,0l209,693l199,0l209,-693M220,268l146,0l-73,306M123,913l87,15C217,907 227,891 241,879C255,866 273,860 295,860C317,860 335,866 349,879C363,891 374,907 381,928l87,-15C464,868 447,829 416,798C385,767 345,751 295,751C245,751 205,767 175,798C144,829 127,868 123,913M202,-150C202,-124 211,-102 229,-85C246,-68 269,-60 296,-60C323,-60 346,-68 363,-85C380,-102 389,-124 389,-150C389,-176 380,-197 363,-214C346,-231 323,-240 296,-240C269,-240 246,-231 229,-214C211,-197 202,-176 202,-150z" /><glyph unicode="Ằ" horiz-adv-x="590" d="M430,0l-36,149l-202,0l-35,-149l-170,0l209,693l199,0l209,-693M220,268l146,0l-73,306M124,899l87,15C218,893 228,877 242,865C256,852 274,846 296,846C318,846 336,852 350,865C364,877 375,893 382,914l87,-15C465,854 448,815 417,784C386,753 346,737 296,737C246,737 206,753 176,784C145,815 128,854 124,899M221,1125l131,-171l-59,-54l-158,141z" /><glyph unicode="Ẳ" horiz-adv-x="590" d="M430,0l-36,149l-202,0l-35,-149l-170,0l209,693l199,0l209,-693M220,268l146,0l-73,306M124,899l87,15C218,893 228,877 242,865C256,852 274,846 296,846C318,846 336,852 350,865C364,877 375,893 382,914l87,-15C465,854 448,815 417,784C386,753 346,737 296,737C246,737 206,753 176,784C145,815 128,854 124,899M250,989C275,990 294,994 305,1000C316,1005 321,1014 321,1027C321,1037 318,1045 311,1050C304,1055 294,1058 281,1058C263,1058 243,1054 221,1045l-26,66C225,1128 261,1137 304,1137C343,1137 374,1128 396,1109C417,1090 428,1066 428,1035C428,984 400,953 344,942l0,-42l-94,0z" /><glyph unicode="Ẵ" horiz-adv-x="590" d="M430,0l-36,149l-202,0l-35,-149l-170,0l209,693l199,0l209,-693M220,268l146,0l-73,306M125,899l87,15C219,893 229,877 243,865C257,852 275,846 297,846C319,846 337,852 351,865C365,877 376,893 383,914l87,-15C466,854 449,815 418,784C387,753 347,737 297,737C247,737 207,753 177,784C146,815 129,854 125,899M283,967C274,973 267,977 261,980C254,983 248,984 242,984C231,984 221,981 214,974C206,967 198,957 189,942l-79,36C123,1011 141,1037 164,1058C186,1079 211,1089 239,1089C254,1089 268,1087 279,1083C290,1078 302,1072 315,1063C324,1057 332,1053 338,1050C343,1047 349,1046 355,1046C366,1046 375,1049 383,1056C390,1063 398,1073 407,1088l79,-37C472,1018 454,991 432,971C409,951 384,941 356,941C341,941 329,943 318,948C307,953 295,959 283,967z" /><glyph unicode="Ǎ" horiz-adv-x="590" d="M430,0l-36,149l-202,0l-35,-149l-170,0l209,693l199,0l209,-693M220,268l146,0l-73,306M429,944l56,-65l-141,-129l-96,0l-142,129l57,65l133,-84z" /><glyph unicode="Â" horiz-adv-x="590" d="M430,0l-36,149l-202,0l-35,-149l-170,0l209,693l199,0l209,-693M220,268l146,0l-73,306M163,755l-57,65l142,129l96,0l141,-129l-56,-65l-133,84z" /><glyph unicode="Ấ" horiz-adv-x="590" d="M430,0l-36,149l-202,0l-35,-149l-170,0l209,693l199,0l209,-693M220,268l146,0l-73,306M163,721l-57,65l142,129l96,0l141,-129l-56,-65l-133,84M531,1094l86,-84l-158,-141l-60,54z" /><glyph unicode="Ậ" horiz-adv-x="590" d="M430,0l-36,149l-202,0l-35,-149l-170,0l209,693l199,0l209,-693M220,268l146,0l-73,306M163,755l-57,65l142,129l96,0l141,-129l-56,-65l-133,84M202,-150C202,-124 211,-102 229,-85C246,-68 269,-60 296,-60C323,-60 346,-68 363,-85C380,-102 389,-124 389,-150C389,-176 380,-197 363,-214C346,-231 323,-240 296,-240C269,-240 246,-231 229,-214C211,-197 202,-176 202,-150z" /><glyph unicode="Ầ" horiz-adv-x="590" d="M430,0l-36,149l-202,0l-35,-149l-170,0l209,693l199,0l209,-693M220,268l146,0l-73,306M162,721l-57,65l142,129l96,0l141,-129l-56,-65l-133,84M62,1094l131,-171l-59,-54l-158,141z" /><glyph unicode="Ẩ" horiz-adv-x="590" d="M430,0l-36,149l-202,0l-35,-149l-170,0l209,693l199,0l209,-693M220,268l146,0l-73,306M162,721l-57,65l142,129l96,0l141,-129l-56,-65l-133,84M420,945C445,946 464,950 475,956C486,961 491,970 491,983C491,993 488,1001 481,1006C474,1011 464,1014 451,1014C433,1014 413,1010 391,1001l-26,66C395,1084 431,1093 474,1093C513,1093 544,1084 566,1065C587,1046 598,1022 598,991C598,940 570,909 514,898l0,-42l-94,0z" /><glyph unicode="Ẫ" horiz-adv-x="590" d="M430,0l-36,149l-202,0l-35,-149l-170,0l209,693l199,0l209,-693M220,268l146,0l-73,306M161,721l-57,65l142,129l96,0l141,-129l-56,-65l-133,84M279,967C270,973 263,977 257,980C250,983 244,984 238,984C227,984 217,981 210,974C202,967 194,957 185,942l-79,36C119,1011 137,1037 160,1058C182,1079 207,1089 235,1089C250,1089 264,1087 275,1083C286,1078 298,1072 311,1063C320,1057 328,1053 334,1050C339,1047 345,1046 351,1046C362,1046 371,1049 379,1056C386,1063 394,1073 403,1088l79,-37C468,1018 450,991 428,971C405,951 380,941 352,941C337,941 325,943 314,948C303,953 291,959 279,967z" /><glyph unicode="Ȁ" horiz-adv-x="590" d="M430,0l-36,149l-202,0l-35,-149l-170,0l209,693l199,0l209,-693M220,268l146,0l-73,306M165,986l97,-197l-81,-38l-122,182M341,986l88,-197l-83,-33l-113,180z" /><glyph unicode="Ä" horiz-adv-x="590" d="M430,0l-36,149l-202,0l-35,-149l-170,0l209,693l199,0l209,-693M220,268l146,0l-73,306M260,846C260,824 252,805 237,790C221,775 202,767 179,767C156,767 137,775 122,790C106,805 98,824 98,846C98,868 106,887 122,902C137,917 156,925 179,925C202,925 221,917 237,902C252,887 260,868 260,846M491,846C491,824 483,805 468,790C453,775 433,767 410,767C388,767 369,775 354,790C338,805 330,824 330,846C330,868 338,887 354,902C369,917 388,925 410,925C433,925 453,917 468,902C483,887 491,868 491,846z" /><glyph unicode="Ǟ" horiz-adv-x="590" d="M430,0l-36,149l-202,0l-35,-149l-170,0l209,693l199,0l209,-693M220,268l146,0l-73,306M261,824C261,802 253,783 238,768C222,753 203,745 180,745C157,745 138,753 123,768C107,783 99,802 99,824C99,846 107,865 123,880C138,895 157,903 180,903C203,903 222,895 238,880C253,865 261,846 261,824M492,824C492,802 484,783 469,768C454,753 434,745 411,745C389,745 370,753 355,768C339,783 331,802 331,824C331,846 339,865 355,880C370,895 389,903 411,903C434,903 454,895 469,880C484,865 492,846 492,824M451,940l-305,0l0,110l305,0z" /><glyph unicode="Ȧ" horiz-adv-x="590" d="M430,0l-36,149l-202,0l-35,-149l-170,0l209,693l199,0l209,-693M220,268l146,0l-73,306M389,847C389,821 380,800 363,783C345,766 322,757 295,757C268,757 245,766 228,783C211,800 202,821 202,847C202,873 211,895 228,912C245,929 268,937 295,937C322,937 345,929 363,912C380,895 389,873 389,847z" /><glyph unicode="Ạ" horiz-adv-x="590" d="M430,0l-36,149l-202,0l-35,-149l-170,0l209,693l199,0l209,-693M220,268l146,0l-73,306M202,-150C202,-124 211,-102 229,-85C246,-68 269,-60 296,-60C323,-60 346,-68 363,-85C380,-102 389,-124 389,-150C389,-176 380,-197 363,-214C346,-231 323,-240 296,-240C269,-240 246,-231 229,-214C211,-197 202,-176 202,-150z" /><glyph unicode="Ǡ" horiz-adv-x="590" d="M430,0l-36,149l-202,0l-35,-149l-170,0l209,693l199,0l209,-693M220,268l146,0l-73,306M388,826C388,800 379,779 362,762C344,745 321,736 294,736C267,736 244,745 227,762C210,779 201,800 201,826C201,852 210,874 227,891C244,908 267,916 294,916C321,916 344,908 362,891C379,874 388,852 388,826M448,941l-305,0l0,110l305,0z" /><glyph unicode="À" horiz-adv-x="590" d="M430,0l-36,149l-202,0l-35,-149l-170,0l209,693l199,0l209,-693M220,268l146,0l-73,306M211,956l221,-125l-40,-80l-240,87z" /><glyph unicode="Ả" horiz-adv-x="590" d="M430,0l-36,149l-202,0l-35,-149l-170,0l209,693l199,0l209,-693M220,268l146,0l-73,306M248,853C273,854 292,858 303,864C314,869 319,878 319,891C319,901 316,909 309,914C302,919 292,922 279,922C261,922 241,918 219,909l-26,66C223,992 259,1001 302,1001C341,1001 372,992 394,973C415,954 426,930 426,899C426,848 398,817 342,806l0,-42l-94,0z" /><glyph unicode="Ȃ" horiz-adv-x="590" d="M430,0l-36,149l-202,0l-35,-149l-170,0l209,693l199,0l209,-693M220,268l146,0l-73,306M468,779l-87,-15C367,816 338,842 295,842C251,842 223,816 210,764l-87,15C127,830 144,871 174,904C204,936 244,952 295,952C346,952 386,936 417,903C447,870 464,829 468,779z" /><glyph unicode="Ɑ" horiz-adv-x="689" d="M661,99l-47,-116C580,-11 552,-2 531,10C509,22 492,39 480,60C435,9 377,-17 306,-17C252,-17 205,-3 164,25C123,52 91,93 68,146C45,199 33,262 33,335C33,412 45,479 69,536C92,593 125,636 167,666C208,695 256,710 309,710C370,710 423,687 468,641l10,52l140,0l0,-514C618,156 621,139 627,128C633,117 644,107 661,99M454,151l0,388C423,573 386,590 342,590C297,590 263,570 240,530C217,490 205,425 205,335C205,251 217,191 240,155C263,118 296,100 339,100C385,100 423,117 454,151z" /><glyph unicode="Ā" horiz-adv-x="590" d="M430,0l-36,149l-202,0l-35,-149l-170,0l209,693l199,0l209,-693M220,268l146,0l-73,306M448,781l-305,0l0,110l305,0z" /><glyph unicode="Ą" horiz-adv-x="590" d="M402,-102C402,-133 420,-148 455,-148C471,-148 491,-145 516,-140l-11,-98C482,-243 458,-246 435,-246C392,-246 356,-235 329,-214C302,-193 288,-164 288,-129C288,-94 300,-63 323,-38C346,-13 380,9 424,26l-30,123l-202,0l-35,-149l-170,0l209,693l199,0l209,-693l-84,0C441,-29 402,-63 402,-102M220,268l146,0l-73,306z" /><glyph unicode="Å" horiz-adv-x="590" d="M430,0l-36,149l-202,0l-35,-149l-170,0l209,693l199,0l209,-693M220,268l146,0l-73,306M435,862C435,825 422,794 397,769C372,744 338,731 296,731C254,731 220,744 195,769C170,794 157,825 157,862C157,899 170,930 195,955C220,980 254,993 296,993C338,993 372,980 397,955C422,930 435,899 435,862M251,862C251,846 255,834 263,825C271,816 282,812 296,812C309,812 320,816 329,825C337,834 341,846 341,862C341,878 337,890 329,899C321,908 310,912 296,912C282,912 271,908 263,899C255,890 251,878 251,862z" /><glyph unicode="Ǻ" horiz-adv-x="590" d="M430,0l-36,149l-202,0l-35,-149l-170,0l209,693l199,0l209,-693M220,268l146,0l-73,306M435,851C435,814 422,783 397,758C372,733 338,720 296,720C254,720 220,733 195,758C170,783 157,814 157,851C157,888 170,919 195,944C220,969 254,982 296,982C338,982 372,969 397,944C422,919 435,888 435,851M251,851C251,835 255,823 263,814C271,805 282,801 296,801C309,801 320,805 329,814C337,823 341,835 341,851C341,867 337,879 329,888C321,897 310,901 296,901C282,901 271,897 263,888C255,879 251,867 251,851M378,1191l59,-118l-240,-87l-40,80z" /><glyph unicode="Ⱥ" horiz-adv-x="590" d="M444,0l-38,149l-114,0l-59,-223l-58,13l56,210l-50,0l-38,-149l-156,0l209,693l178,0l17,63l57,-14l-32,-120l188,-622M209,261l51,0l60,225l-27,104M321,261l56,0l-27,108z" /><glyph unicode="Ã" horiz-adv-x="590" d="M430,0l-36,149l-202,0l-35,-149l-170,0l209,693l199,0l209,-693M220,268l146,0l-73,306M281,788C264,800 251,806 240,806C229,806 219,803 212,796C204,789 196,777 187,762l-79,38C121,835 139,863 162,885C184,907 209,918 237,918C252,918 266,916 277,911C288,906 300,899 313,890C322,884 330,880 336,877C341,874 347,873 353,873C364,873 373,877 381,884C388,891 396,902 405,917l79,-39C470,843 452,814 430,793C407,772 382,761 354,761C339,761 327,763 316,768C305,773 294,779 281,788z" /><glyph unicode="Æ" horiz-adv-x="845" d="M582,118l230,0l0,-118l-368,0l-26,149l-215,0l-50,-149l-176,0l272,693l526,0l-17,-117l-270,0l34,-168l244,0l0,-115l-220,0M243,268l155,0l-53,305z" /><glyph unicode="Ǽ" horiz-adv-x="845" d="M582,118l230,0l0,-118l-368,0l-26,149l-215,0l-50,-149l-176,0l272,693l526,0l-17,-117l-270,0l34,-168l244,0l0,-115l-220,0M243,268l155,0l-53,305M564,956l59,-118l-240,-87l-40,80z" /><glyph unicode="Ǣ" horiz-adv-x="845" d="M582,118l230,0l0,-118l-368,0l-26,149l-215,0l-50,-149l-176,0l272,693l526,0l-17,-117l-270,0l34,-168l244,0l0,-115l-220,0M243,268l155,0l-53,305M635,781l-305,0l0,110l305,0z" /><glyph unicode="B" horiz-adv-x="617" d="M590,202C590,128 564,76 511,46C458,15 383,0 288,0l-223,0l0,693l196,0C358,693 433,679 484,652C535,624 561,579 561,516C561,475 549,443 525,418C500,393 470,376 434,367C480,358 518,341 547,316C576,291 590,253 590,202M229,577l0,-161l61,0C359,416 394,444 394,500C394,528 385,548 366,560C347,571 318,577 277,577M421,211C421,275 381,307 301,307l-72,0l0,-188l60,0C332,119 365,126 388,139C410,152 421,176 421,211z" /><glyph unicode="Ḃ" horiz-adv-x="617" d="M590,202C590,128 564,76 511,46C458,15 383,0 288,0l-223,0l0,693l196,0C358,693 433,679 484,652C535,624 561,579 561,516C561,475 549,443 525,418C500,393 470,376 434,367C480,358 518,341 547,316C576,291 590,253 590,202M229,577l0,-161l61,0C359,416 394,444 394,500C394,528 385,548 366,560C347,571 318,577 277,577M421,211C421,275 381,307 301,307l-72,0l0,-188l60,0C332,119 365,126 388,139C410,152 421,176 421,211M388,847C388,821 379,800 362,783C344,766 321,757 294,757C267,757 244,766 227,783C210,800 201,821 201,847C201,873 210,895 227,912C244,929 267,937 294,937C321,937 344,929 362,912C379,895 388,873 388,847z" /><glyph unicode="Ḅ" horiz-adv-x="617" d="M590,202C590,128 564,76 511,46C458,15 383,0 288,0l-223,0l0,693l196,0C358,693 433,679 484,652C535,624 561,579 561,516C561,475 549,443 525,418C500,393 470,376 434,367C480,358 518,341 547,316C576,291 590,253 590,202M229,577l0,-161l61,0C359,416 394,444 394,500C394,528 385,548 366,560C347,571 318,577 277,577M421,211C421,275 381,307 301,307l-72,0l0,-188l60,0C332,119 365,126 388,139C410,152 421,176 421,211M216,-150C216,-124 225,-102 243,-85C260,-68 283,-60 310,-60C337,-60 360,-68 377,-85C394,-102 403,-124 403,-150C403,-176 394,-197 377,-214C360,-231 337,-240 310,-240C283,-240 260,-231 243,-214C225,-197 216,-176 216,-150z" /><glyph unicode="Ꞵ" horiz-adv-x="617" d="M590,206C590,134 566,82 517,49C468,16 406,0 331,0C298,0 264,3 229,10l0,-220l-164,0l0,903l196,0C358,693 433,679 484,652C535,624 561,579 561,516C561,475 549,443 525,418C500,393 470,376 434,367C538,347 590,293 590,206M421,216C421,247 411,270 392,285C373,300 347,307 314,307l-34,0l10,109l13,0C330,416 352,423 369,437C386,450 394,470 394,497C394,526 385,547 366,559C347,571 318,577 277,577l-48,0l0,-452C255,121 282,119 309,119C344,119 371,127 391,142C411,157 421,182 421,216z" /><glyph unicode="Ɓ" horiz-adv-x="758" d="M732,202C732,128 706,76 653,46C600,15 525,0 430,0l-223,0l0,576l-29,0C163,576 152,572 144,565C136,558 132,547 132,534C132,517 138,495 149,469l-101,-45C35,444 24,464 16,483C8,502 4,523 4,544C4,590 21,626 54,653C87,680 131,693 187,693l216,0C500,693 575,679 626,652C677,624 703,579 703,516C703,475 691,443 667,418C642,393 612,376 576,367C622,358 660,341 689,316C718,291 732,253 732,202M371,577l0,-161l61,0C501,416 536,444 536,500C536,528 527,548 508,560C489,571 460,577 419,577M563,211C563,275 523,307 443,307l-72,0l0,-188l60,0C474,119 507,126 530,139C552,152 563,176 563,211z" /><glyph unicode="Ƀ" horiz-adv-x="631" d="M604,202C604,128 578,76 525,46C472,15 397,0 302,0l-223,0l0,175l-65,0l0,80l65,0l0,438l196,0C372,693 447,679 498,652C549,624 575,579 575,516C575,475 563,443 539,418C514,393 484,376 448,367C494,358 532,341 561,316C590,291 604,253 604,202M243,577l0,-161l61,0C373,416 408,444 408,500C408,528 399,548 380,560C361,571 332,577 291,577M435,211C435,275 395,307 315,307l-72,0l0,-52l115,0l0,-80l-115,0l0,-56l60,0C346,119 379,126 402,139C424,152 435,176 435,211z" /><glyph unicode="Ƃ" horiz-adv-x="596" d="M578,229C578,154 553,97 504,58C455,19 389,0 306,0l-241,0l0,693l432,0l-17,-124l-251,0l0,-123l74,0C391,446 459,428 507,391C554,354 578,300 578,229M407,227C407,297 368,332 289,332l-60,0l0,-213l63,0C369,119 407,155 407,227z" /><glyph unicode="C" horiz-adv-x="575" d="M559,634l-78,-93C460,557 440,569 420,577C400,585 379,589 356,589C309,589 273,569 246,530C219,491 205,430 205,348C205,267 219,208 246,169C273,130 310,110 358,110C383,110 406,115 427,125C448,134 470,148 494,166l73,-94C541,46 510,25 473,8C436,-9 395,-17 350,-17C286,-17 230,-3 183,25C136,53 99,95 73,150C46,205 33,271 33,348C33,423 47,488 74,543C101,598 138,639 186,668C233,696 287,710 348,710C391,710 430,704 464,691C497,678 529,659 559,634z" /><glyph unicode="Ć" horiz-adv-x="575" d="M559,634l-78,-93C460,557 440,569 420,577C400,585 379,589 356,589C309,589 273,569 246,530C219,491 205,430 205,348C205,267 219,208 246,169C273,130 310,110 358,110C383,110 406,115 427,125C448,134 470,148 494,166l73,-94C541,46 510,25 473,8C436,-9 395,-17 350,-17C286,-17 230,-3 183,25C136,53 99,95 73,150C46,205 33,271 33,348C33,423 47,488 74,543C101,598 138,639 186,668C233,696 287,710 348,710C391,710 430,704 464,691C497,678 529,659 559,634M435,956l59,-118l-240,-87l-40,80z" /><glyph unicode="Č" horiz-adv-x="575" d="M559,634l-78,-93C460,557 440,569 420,577C400,585 379,589 356,589C309,589 273,569 246,530C219,491 205,430 205,348C205,267 219,208 246,169C273,130 310,110 358,110C383,110 406,115 427,125C448,134 470,148 494,166l73,-94C541,46 510,25 473,8C436,-9 395,-17 350,-17C286,-17 230,-3 183,25C136,53 99,95 73,150C46,205 33,271 33,348C33,423 47,488 74,543C101,598 138,639 186,668C233,696 287,710 348,710C391,710 430,704 464,691C497,678 529,659 559,634M487,944l56,-65l-141,-129l-96,0l-142,129l57,65l133,-84z" /><glyph unicode="Ç" horiz-adv-x="575" d="M487,-147C487,-181 474,-209 447,-230C420,-251 383,-262 338,-262C315,-262 294,-259 275,-253C256,-248 239,-241 226,-232l36,73C285,-170 306,-176 326,-176C357,-176 373,-166 373,-146C373,-134 366,-125 351,-120C336,-115 313,-112 281,-112l12,99C212,-1 149,36 103,99C56,161 33,244 33,348C33,423 47,488 74,543C101,598 138,639 186,668C233,696 287,710 348,710C391,710 430,704 464,691C497,678 529,659 559,634l-78,-93C460,557 440,569 420,577C400,585 379,589 356,589C309,589 273,569 246,530C219,491 205,430 205,348C205,267 219,208 246,169C273,130 310,110 358,110C383,110 406,115 427,125C448,134 470,148 494,166l73,-94C544,49 517,30 486,15C455,-1 420,-11 383,-15l0,-33C418,-52 445,-62 462,-79C479,-96 487,-119 487,-147z" /><glyph unicode="Ĉ" horiz-adv-x="575" d="M559,634l-78,-93C460,557 440,569 420,577C400,585 379,589 356,589C309,589 273,569 246,530C219,491 205,430 205,348C205,267 219,208 246,169C273,130 310,110 358,110C383,110 406,115 427,125C448,134 470,148 494,166l73,-94C541,46 510,25 473,8C436,-9 395,-17 350,-17C286,-17 230,-3 183,25C136,53 99,95 73,150C46,205 33,271 33,348C33,423 47,488 74,543C101,598 138,639 186,668C233,696 287,710 348,710C391,710 430,704 464,691C497,678 529,659 559,634M221,755l-57,65l142,129l96,0l141,-129l-56,-65l-133,84z" /><glyph unicode="Ċ" horiz-adv-x="575" d="M559,634l-78,-93C460,557 440,569 420,577C400,585 379,589 356,589C309,589 273,569 246,530C219,491 205,430 205,348C205,267 219,208 246,169C273,130 310,110 358,110C383,110 406,115 427,125C448,134 470,148 494,166l73,-94C541,46 510,25 473,8C436,-9 395,-17 350,-17C286,-17 230,-3 183,25C136,53 99,95 73,150C46,205 33,271 33,348C33,423 47,488 74,543C101,598 138,639 186,668C233,696 287,710 348,710C391,710 430,704 464,691C497,678 529,659 559,634M447,847C447,821 438,800 421,783C403,766 380,757 353,757C326,757 303,766 286,783C269,800 260,821 260,847C260,873 269,895 286,912C303,929 326,937 353,937C380,937 403,929 421,912C438,895 447,873 447,847z" /><glyph unicode="Ꭓ" horiz-adv-x="572" d="M381,295l195,-456l-179,0l-115,346l-112,-346l-174,0l189,451l-174,403l178,0l95,-301l101,301l174,0z" /><glyph unicode="Ƈ" horiz-adv-x="575" d="M725,814l-46,-98C666,723 655,728 645,731C634,734 623,735 611,735C576,735 559,714 559,673l0,-39l-70,-84C468,563 446,572 425,579C404,586 380,589 355,589C309,589 273,569 246,530C219,490 205,429 205,348C205,267 219,208 246,169C273,130 310,110 358,110C383,110 405,115 426,125C446,135 468,149 493,168l74,-96C542,47 510,26 473,9C436,-8 395,-17 350,-17C286,-17 230,-3 183,25C136,53 99,95 73,150C46,205 33,271 33,348C33,423 46,487 73,542C100,597 136,638 181,667C226,696 276,710 329,710C363,710 393,705 420,694C423,744 438,783 467,810C495,837 536,851 590,851C641,851 686,839 725,814z" /><glyph unicode="Ȼ" horiz-adv-x="575" d="M350,-17C323,-17 298,-15 275,-10l-17,-64l-58,13l18,69C160,32 115,73 82,131C49,189 33,261 33,348C33,423 47,488 74,543C101,598 138,639 186,668C233,696 287,710 348,710C369,710 388,709 404,706l13,50l57,-14l-13,-50C496,679 529,660 559,634l-78,-93C462,555 445,566 429,573l-120,-455C325,113 341,110 358,110C383,110 406,115 427,125C448,134 470,148 494,166l73,-94C541,46 510,25 473,8C436,-9 395,-17 350,-17M257,154l115,434C369,589 363,589 356,589C309,589 273,569 246,530C219,491 205,430 205,348C205,257 222,193 257,154z" /><glyph unicode="D" horiz-adv-x="651" d="M618,350C618,221 586,131 522,79C458,26 375,0 273,0l-208,0l0,693l193,0C367,693 454,669 520,620C585,571 618,481 618,350M229,574l0,-455l54,0C337,119 378,136 406,170C434,203 448,263 448,350C448,409 441,455 427,488C413,521 394,543 370,556C346,568 316,574 281,574z" /><glyph unicode="Ǳ" horiz-adv-x="1170" d="M618,350C618,221 586,131 522,79C458,26 375,0 273,0l-208,0l0,693l193,0C367,693 454,669 520,620C585,571 618,481 618,350M229,574l0,-455l54,0C337,119 378,136 406,170C434,203 448,263 448,350C448,409 441,455 427,488C413,521 394,543 370,556C346,568 316,574 281,574M1138,693l0,-124l-301,-438l306,0l-16,-131l-483,0l0,123l307,443l-276,0l0,127z" /><glyph unicode="Ǆ" horiz-adv-x="1170" d="M618,350C618,221 586,131 522,79C458,26 375,0 273,0l-208,0l0,693l193,0C367,693 454,669 520,620C585,571 618,481 618,350M229,574l0,-455l54,0C337,119 378,136 406,170C434,203 448,263 448,350C448,409 441,455 427,488C413,521 394,543 370,556C346,568 316,574 281,574M1138,693l0,-124l-301,-438l306,0l-16,-131l-483,0l0,123l307,443l-276,0l0,127M1035,944l56,-65l-141,-129l-96,0l-142,129l57,65l133,-84z" /><glyph unicode="Ɖ" horiz-adv-x="665" d="M632,350C632,221 600,131 536,79C472,26 389,0 287,0l-208,0l0,304l-65,0l0,98l65,0l0,291l193,0C381,693 468,669 534,620C599,571 632,481 632,350M462,350C462,409 455,455 441,488C427,521 408,543 384,556C360,568 330,574 295,574l-52,0l0,-172l134,0l0,-98l-134,0l0,-185l54,0C351,119 392,136 420,170C448,203 462,263 462,350z" /><glyph unicode="Ð" horiz-adv-x="665" d="M632,350C632,221 600,131 536,79C472,26 389,0 287,0l-208,0l0,304l-65,0l0,98l65,0l0,291l193,0C381,693 468,669 534,620C599,571 632,481 632,350M462,350C462,409 455,455 441,488C427,521 408,543 384,556C360,568 330,574 295,574l-52,0l0,-172l134,0l0,-98l-134,0l0,-185l54,0C351,119 392,136 420,170C448,203 462,263 462,350z" /><glyph unicode="Ď" horiz-adv-x="651" d="M618,350C618,221 586,131 522,79C458,26 375,0 273,0l-208,0l0,693l193,0C367,693 454,669 520,620C585,571 618,481 618,350M229,574l0,-455l54,0C337,119 378,136 406,170C434,203 448,263 448,350C448,409 441,455 427,488C413,521 394,543 370,556C346,568 316,574 281,574M429,944l56,-65l-141,-129l-96,0l-142,129l57,65l133,-84z" /><glyph unicode="Ḓ" horiz-adv-x="651" d="M618,350C618,221 586,131 522,79C458,26 375,0 273,0l-208,0l0,693l193,0C367,693 454,669 520,620C585,571 618,481 618,350M229,574l0,-455l54,0C337,119 378,136 406,170C434,203 448,263 448,350C448,409 441,455 427,488C413,521 394,543 370,556C346,568 316,574 281,574M172,-265l-56,65l141,137l97,0l141,-137l-56,-65l-133,92z" /><glyph unicode="Đ" horiz-adv-x="665" d="M632,350C632,221 600,131 536,79C472,26 389,0 287,0l-208,0l0,304l-65,0l0,98l65,0l0,291l193,0C381,693 468,669 534,620C599,571 632,481 632,350M462,350C462,409 455,455 441,488C427,521 408,543 384,556C360,568 330,574 295,574l-52,0l0,-172l134,0l0,-98l-134,0l0,-185l54,0C351,119 392,136 420,170C448,203 462,263 462,350z" /><glyph unicode="Ḋ" horiz-adv-x="651" d="M618,350C618,221 586,131 522,79C458,26 375,0 273,0l-208,0l0,693l193,0C367,693 454,669 520,620C585,571 618,481 618,350M229,574l0,-455l54,0C337,119 378,136 406,170C434,203 448,263 448,350C448,409 441,455 427,488C413,521 394,543 370,556C346,568 316,574 281,574M389,847C389,821 380,800 363,783C345,766 322,757 295,757C268,757 245,766 228,783C211,800 202,821 202,847C202,873 211,895 228,912C245,929 268,937 295,937C322,937 345,929 363,912C380,895 389,873 389,847z" /><glyph unicode="Ḍ" horiz-adv-x="651" d="M618,350C618,221 586,131 522,79C458,26 375,0 273,0l-208,0l0,693l193,0C367,693 454,669 520,620C585,571 618,481 618,350M229,574l0,-455l54,0C337,119 378,136 406,170C434,203 448,263 448,350C448,409 441,455 427,488C413,521 394,543 370,556C346,568 316,574 281,574M212,-150C212,-124 221,-102 239,-85C256,-68 279,-60 306,-60C333,-60 356,-68 373,-85C390,-102 399,-124 399,-150C399,-176 390,-197 373,-214C356,-231 333,-240 306,-240C279,-240 256,-231 239,-214C221,-197 212,-176 212,-150z" /><glyph unicode="Ɗ" horiz-adv-x="793" d="M760,350C760,221 728,131 664,79C600,26 517,0 415,0l-208,0l0,576l-29,0C163,576 152,572 144,565C136,558 132,547 132,534C132,517 138,495 149,469l-101,-45C35,444 24,464 16,483C8,502 4,523 4,544C4,590 21,626 54,653C87,680 131,693 187,693l213,0C509,693 596,669 662,620C727,571 760,481 760,350M590,350C590,409 583,455 569,488C555,521 536,543 512,556C488,568 458,574 423,574l-52,0l0,-455l54,0C479,119 520,136 548,170C576,203 590,263 590,350z" /><glyph unicode="Ḏ" horiz-adv-x="651" d="M618,350C618,221 586,131 522,79C458,26 375,0 273,0l-208,0l0,693l193,0C367,693 454,669 520,620C585,571 618,481 618,350M229,574l0,-455l54,0C337,119 378,136 406,170C434,203 448,263 448,350C448,409 441,455 427,488C413,521 394,543 370,556C346,568 316,574 281,574M458,-191l-305,0l0,110l305,0z" /><glyph unicode="Ƌ" horiz-adv-x="596" d="M531,0l-247,0C203,0 138,19 90,56C42,93 18,148 18,223C18,294 42,349 91,388C139,427 206,446 293,446l74,0l0,123l-262,0l0,124l426,0M367,119l0,213l-60,0C228,332 189,296 189,223C189,154 227,119 303,119z" /><glyph unicode="ǲ" horiz-adv-x="1100" d="M618,350C618,221 586,131 522,79C458,26 375,0 273,0l-208,0l0,693l193,0C367,693 454,669 520,620C585,571 618,481 618,350M229,574l0,-455l54,0C337,119 378,136 406,170C434,203 448,263 448,350C448,409 441,455 427,488C413,521 394,543 370,556C346,568 316,574 281,574M1077,531l0,-111l-240,-300l245,0l-14,-120l-414,0l0,112l241,300l-220,0l0,119z" /><glyph unicode="ǅ" horiz-adv-x="1100" d="M618,350C618,221 586,131 522,79C458,26 375,0 273,0l-208,0l0,693l193,0C367,693 454,669 520,620C585,571 618,481 618,350M229,574l0,-455l54,0C337,119 378,136 406,170C434,203 448,263 448,350C448,409 441,455 427,488C413,521 394,543 370,556C346,568 316,574 281,574M1077,531l0,-111l-240,-300l245,0l-14,-120l-414,0l0,112l241,300l-220,0l0,119M1007,813l56,-65l-141,-137l-96,0l-142,137l57,65l133,-91z" /><glyph unicode="E" horiz-adv-x="526" d="M490,693l-17,-117l-244,0l0,-166l213,0l0,-115l-213,0l0,-177l261,0l0,-118l-425,0l0,693z" /><glyph unicode="É" horiz-adv-x="526" d="M490,693l-17,-117l-244,0l0,-166l213,0l0,-115l-213,0l0,-177l261,0l0,-118l-425,0l0,693M360,956l59,-118l-240,-87l-40,80z" /><glyph unicode="Ĕ" horiz-adv-x="526" d="M490,693l-17,-117l-244,0l0,-166l213,0l0,-115l-213,0l0,-177l261,0l0,-118l-425,0l0,693M106,913l87,15C200,907 210,891 224,879C238,866 256,860 278,860C300,860 318,866 332,879C346,891 357,907 364,928l87,-15C447,868 430,829 399,798C368,767 328,751 278,751C228,751 188,767 158,798C127,829 110,868 106,913z" /><glyph unicode="Ě" horiz-adv-x="526" d="M490,693l-17,-117l-244,0l0,-166l213,0l0,-115l-213,0l0,-177l261,0l0,-118l-425,0l0,693M412,944l56,-65l-141,-129l-96,0l-142,129l57,65l133,-84z" /><glyph unicode="Ȩ" horiz-adv-x="526" d="M229,118l261,0l0,-118l-172,0l0,-48C353,-52 380,-62 397,-79C414,-96 422,-119 422,-147C422,-181 409,-209 382,-230C355,-251 318,-262 273,-262C250,-262 229,-259 210,-253C191,-248 174,-241 161,-232l36,73C220,-170 241,-176 261,-176C292,-176 308,-166 308,-146C308,-134 301,-125 286,-120C271,-115 248,-112 216,-112l13,112l-164,0l0,693l425,0l-17,-117l-244,0l0,-166l213,0l0,-115l-213,0z" /><glyph unicode="Ê" horiz-adv-x="526" d="M490,693l-17,-117l-244,0l0,-166l213,0l0,-115l-213,0l0,-177l261,0l0,-118l-425,0l0,693M146,755l-57,65l142,129l96,0l141,-129l-56,-65l-133,84z" /><glyph unicode="Ế" horiz-adv-x="526" d="M490,693l-17,-117l-244,0l0,-166l213,0l0,-115l-213,0l0,-177l261,0l0,-118l-425,0l0,693M146,721l-57,65l142,129l96,0l141,-129l-56,-65l-133,84M514,1094l86,-84l-158,-141l-60,54z" /><glyph unicode="Ệ" horiz-adv-x="526" d="M490,693l-17,-117l-244,0l0,-166l213,0l0,-115l-213,0l0,-177l261,0l0,-118l-425,0l0,693M146,755l-57,65l142,129l96,0l141,-129l-56,-65l-133,84M183,-150C183,-124 192,-102 210,-85C227,-68 250,-60 277,-60C304,-60 327,-68 344,-85C361,-102 370,-124 370,-150C370,-176 361,-197 344,-214C327,-231 304,-240 277,-240C250,-240 227,-231 210,-214C192,-197 183,-176 183,-150z" /><glyph unicode="Ề" horiz-adv-x="526" d="M490,693l-17,-117l-244,0l0,-166l213,0l0,-115l-213,0l0,-177l261,0l0,-118l-425,0l0,693M145,721l-57,65l142,129l96,0l141,-129l-56,-65l-133,84M45,1094l131,-171l-59,-54l-158,141z" /><glyph unicode="Ể" horiz-adv-x="526" d="M490,693l-17,-117l-244,0l0,-166l213,0l0,-115l-213,0l0,-177l261,0l0,-118l-425,0l0,693M145,721l-57,65l142,129l96,0l141,-129l-56,-65l-133,84M403,945C428,946 447,950 458,956C469,961 474,970 474,983C474,993 471,1001 464,1006C457,1011 447,1014 434,1014C416,1014 396,1010 374,1001l-26,66C378,1084 414,1093 457,1093C496,1093 527,1084 549,1065C570,1046 581,1022 581,991C581,940 553,909 497,898l0,-42l-94,0z" /><glyph unicode="Ễ" horiz-adv-x="526" d="M490,693l-17,-117l-244,0l0,-166l213,0l0,-115l-213,0l0,-177l261,0l0,-118l-425,0l0,693M144,721l-57,65l142,129l96,0l141,-129l-56,-65l-133,84M262,967C253,973 246,977 240,980C233,983 227,984 221,984C210,984 200,981 193,974C185,967 177,957 168,942l-79,36C102,1011 120,1037 143,1058C165,1079 190,1089 218,1089C233,1089 247,1087 258,1083C269,1078 281,1072 294,1063C303,1057 311,1053 317,1050C322,1047 328,1046 334,1046C345,1046 354,1049 362,1056C369,1063 377,1073 386,1088l79,-37C451,1018 433,991 411,971C388,951 363,941 335,941C320,941 308,943 297,948C286,953 274,959 262,967z" /><glyph unicode="Ȅ" horiz-adv-x="526" d="M490,693l-17,-117l-244,0l0,-166l213,0l0,-115l-213,0l0,-177l261,0l0,-118l-425,0l0,693M148,986l97,-197l-81,-38l-122,182M324,986l88,-197l-83,-33l-113,180z" /><glyph unicode="Ë" horiz-adv-x="526" d="M490,693l-17,-117l-244,0l0,-166l213,0l0,-115l-213,0l0,-177l261,0l0,-118l-425,0l0,693M243,846C243,824 235,805 220,790C204,775 185,767 162,767C139,767 120,775 105,790C89,805 81,824 81,846C81,868 89,887 105,902C120,917 139,925 162,925C185,925 204,917 220,902C235,887 243,868 243,846M474,846C474,824 466,805 451,790C436,775 416,767 393,767C371,767 352,775 337,790C321,805 313,824 313,846C313,868 321,887 337,902C352,917 371,925 393,925C416,925 436,917 451,902C466,887 474,868 474,846z" /><glyph unicode="Ė" horiz-adv-x="526" d="M490,693l-17,-117l-244,0l0,-166l213,0l0,-115l-213,0l0,-177l261,0l0,-118l-425,0l0,693M372,847C372,821 363,800 346,783C328,766 305,757 278,757C251,757 228,766 211,783C194,800 185,821 185,847C185,873 194,895 211,912C228,929 251,937 278,937C305,937 328,929 346,912C363,895 372,873 372,847z" /><glyph unicode="Ẹ" horiz-adv-x="526" d="M490,693l-17,-117l-244,0l0,-166l213,0l0,-115l-213,0l0,-177l261,0l0,-118l-425,0l0,693M183,-150C183,-124 192,-102 210,-85C227,-68 250,-60 277,-60C304,-60 327,-68 344,-85C361,-102 370,-124 370,-150C370,-176 361,-197 344,-214C327,-231 304,-240 277,-240C250,-240 227,-231 210,-214C192,-197 183,-176 183,-150z" /><glyph unicode="È" horiz-adv-x="526" d="M490,693l-17,-117l-244,0l0,-166l213,0l0,-115l-213,0l0,-177l261,0l0,-118l-425,0l0,693M194,956l221,-125l-40,-80l-240,87z" /><glyph unicode="Ẻ" horiz-adv-x="526" d="M490,693l-17,-117l-244,0l0,-166l213,0l0,-115l-213,0l0,-177l261,0l0,-118l-425,0l0,693M231,853C256,854 275,858 286,864C297,869 302,878 302,891C302,901 299,909 292,914C285,919 275,922 262,922C244,922 224,918 202,909l-26,66C206,992 242,1001 285,1001C324,1001 355,992 377,973C398,954 409,930 409,899C409,848 381,817 325,806l0,-42l-94,0z" /><glyph unicode="Ȇ" horiz-adv-x="526" d="M490,693l-17,-117l-244,0l0,-166l213,0l0,-115l-213,0l0,-177l261,0l0,-118l-425,0l0,693M451,779l-87,-15C350,816 321,842 278,842C234,842 206,816 193,764l-87,15C110,830 127,871 157,904C187,936 227,952 278,952C329,952 369,936 400,903C430,870 447,829 451,779z" /><glyph unicode="Ē" horiz-adv-x="526" d="M490,693l-17,-117l-244,0l0,-166l213,0l0,-115l-213,0l0,-177l261,0l0,-118l-425,0l0,693M431,781l-305,0l0,110l305,0z" /><glyph unicode="Ę" horiz-adv-x="526" d="M229,118l261,0l0,-118l-40,0C371,-29 332,-63 332,-102C332,-133 350,-148 385,-148C401,-148 421,-145 446,-140l-11,-98C412,-243 388,-246 365,-246C322,-246 286,-235 259,-214C232,-193 218,-164 218,-129C218,-76 245,-33 300,0l-235,0l0,693l425,0l-17,-117l-244,0l0,-166l213,0l0,-115l-213,0z" /><glyph unicode="Ɛ" horiz-adv-x="541" d="M523,618l-79,-83C402,572 357,591 310,591C277,591 254,584 239,569C224,554 216,535 216,510C216,483 225,462 243,447C261,432 286,424 319,424l76,0l-20,-118l-53,0C281,306 250,297 229,280C208,262 198,237 198,205C198,173 208,148 229,131C250,113 278,104 315,104C342,104 367,109 390,119C412,129 434,145 456,166l87,-86C482,15 401,-17 299,-17C246,-17 199,-8 158,9C117,26 84,51 61,84C38,116 26,153 26,195C26,246 42,286 73,315C104,344 147,362 202,368C151,378 113,397 87,425C60,453 47,487 47,528C47,563 57,594 78,622C98,649 126,671 163,687C200,702 242,710 291,710C338,710 380,702 418,687C455,672 490,649 523,618z" /><glyph unicode="Ǝ" horiz-adv-x="526" d="M41,693l420,0l0,-693l-425,0l0,118l261,0l0,177l-213,0l0,115l213,0l0,166l-256,0z" /><glyph unicode="Ʃ" horiz-adv-x="503" d="M482,693l0,-119l-280,0l168,-200l0,-65l-169,-187l281,0l0,-122l-461,0l0,119l192,221l-192,234l0,119z" /><glyph unicode="Ɇ" horiz-adv-x="526" d="M337,295l-47,-177l200,0l0,-118l-231,0l-20,-74l-58,13l16,61l-132,0l0,693l315,0l17,63l58,-14l-13,-49l48,0l-17,-117l-62,0l-44,-166l75,0l0,-115M229,576l0,-166l77,0l43,166M229,295l0,-174l46,174z" /><glyph unicode="Ẽ" horiz-adv-x="526" d="M490,693l-17,-117l-244,0l0,-166l213,0l0,-115l-213,0l0,-177l261,0l0,-118l-425,0l0,693M264,788C247,800 234,806 223,806C212,806 202,803 195,796C187,789 179,777 170,762l-79,38C104,835 122,863 145,885C167,907 192,918 220,918C235,918 249,916 260,911C271,906 283,899 296,890C305,884 313,880 319,877C324,874 330,873 336,873C347,873 356,877 364,884C371,891 379,902 388,917l79,-39C453,843 435,814 413,793C390,772 365,761 337,761C322,761 310,763 299,768C288,773 277,779 264,788z" /><glyph unicode="Ʒ" horiz-adv-x="547" d="M520,205C520,163 509,125 487,92C465,58 433,31 392,12C350,-7 300,-17 243,-17C189,-17 143,-8 104,9C65,26 32,52 4,85l84,82C111,145 134,129 157,120C179,110 205,105 235,105C272,105 300,114 321,133C341,152 351,178 351,212C351,276 309,308 226,308l-99,0l0,92l177,174l-261,0l0,119l442,0l0,-115l-178,-175C376,400 428,382 465,347C502,312 520,265 520,205z" /><glyph unicode="Ǯ" horiz-adv-x="547" d="M520,205C520,163 509,125 487,92C465,58 433,31 392,12C350,-7 300,-17 243,-17C189,-17 143,-8 104,9C65,26 32,52 4,85l84,82C111,145 134,129 157,120C179,110 205,105 235,105C272,105 300,114 321,133C341,152 351,178 351,212C351,276 309,308 226,308l-99,0l0,92l177,174l-261,0l0,119l442,0l0,-115l-178,-175C376,400 428,382 465,347C502,312 520,265 520,205M398,944l56,-65l-141,-129l-96,0l-142,129l57,65l133,-84z" /><glyph unicode="Ƹ" horiz-adv-x="547" d="M543,85C514,52 479,26 440,9C400,-8 352,-17 296,-17C241,-17 194,-7 153,12C112,31 80,57 59,90C37,123 26,160 26,203C26,261 45,308 84,345C122,381 174,400 240,403l-178,175l0,115l441,0l0,-119l-258,0l175,-176l0,-90l-100,0C279,308 249,299 228,282C207,264 196,238 196,205C196,174 206,149 225,132C244,114 271,105 305,105C337,105 365,110 389,120C412,129 435,145 458,167z" /><glyph unicode="F" horiz-adv-x="487" d="M65,0l0,693l413,0l-17,-117l-232,0l0,-184l202,0l0,-117l-202,0l0,-275z" /><glyph unicode="Ḟ" horiz-adv-x="487" d="M65,0l0,693l413,0l-17,-117l-232,0l0,-184l202,0l0,-117l-202,0l0,-275M374,847C374,821 365,800 348,783C330,766 307,757 280,757C253,757 230,766 213,783C196,800 187,821 187,847C187,873 196,895 213,912C230,929 253,937 280,937C307,937 330,929 348,912C365,895 374,873 374,847z" /><glyph unicode="Ƒ" horiz-adv-x="487" d="M229,576l0,-184l202,0l0,-117l-202,0l0,-306C229,-94 211,-141 175,-173C139,-206 90,-222 28,-222C-28,-222 -75,-208 -113,-179l54,97C-44,-89 -32,-95 -23,-98C-14,-101 -2,-103 11,-103C28,-103 42,-98 51,-87C60,-77 65,-62 65,-42l0,735l413,0l-17,-117z" /><glyph unicode="G" horiz-adv-x="645" d="M596,625l-83,-87C488,557 466,570 445,579C424,587 399,591 372,591C321,591 280,571 249,531C218,490 203,429 203,347C203,258 215,196 238,159C261,122 298,103 347,103C382,103 413,111 441,126l0,157l-90,0l-16,116l265,0l0,-343C564,33 524,15 481,2C438,-11 394,-17 351,-17C246,-17 166,14 113,76C60,137 33,228 33,347C33,423 48,488 77,543C106,598 145,639 196,668C246,696 302,710 365,710C454,710 531,682 596,625z" /><glyph unicode="Ǵ" horiz-adv-x="645" d="M596,625l-83,-87C488,557 466,570 445,579C424,587 399,591 372,591C321,591 280,571 249,531C218,490 203,429 203,347C203,258 215,196 238,159C261,122 298,103 347,103C382,103 413,111 441,126l0,157l-90,0l-16,116l265,0l0,-343C564,33 524,15 481,2C438,-11 394,-17 351,-17C246,-17 166,14 113,76C60,137 33,228 33,347C33,423 48,488 77,543C106,598 145,639 196,668C246,696 302,710 365,710C454,710 531,682 596,625M433,956l59,-118l-240,-87l-40,80z" /><glyph unicode="Ɣ" horiz-adv-x="570" d="M372,92C395,54 412,21 423,-8C433,-37 438,-67 438,-97C438,-136 426,-166 402,-188C377,-211 339,-222 287,-222C236,-222 199,-211 174,-189C149,-167 136,-137 136,-98C136,-71 141,-43 152,-15C162,13 179,49 204,92l-217,601l173,0l128,-494l127,494l168,0M287,6C268,-36 258,-67 258,-87C258,-98 261,-106 266,-111C271,-116 278,-119 287,-119C296,-119 304,-116 309,-110C314,-105 316,-97 316,-87C316,-75 314,-62 309,-48C304,-35 297,-17 287,6z" /><glyph unicode="Ğ" horiz-adv-x="645" d="M596,625l-83,-87C488,557 466,570 445,579C424,587 399,591 372,591C321,591 280,571 249,531C218,490 203,429 203,347C203,258 215,196 238,159C261,122 298,103 347,103C382,103 413,111 441,126l0,157l-90,0l-16,116l265,0l0,-343C564,33 524,15 481,2C438,-11 394,-17 351,-17C246,-17 166,14 113,76C60,137 33,228 33,347C33,423 48,488 77,543C106,598 145,639 196,668C246,696 302,710 365,710C454,710 531,682 596,625M179,913l87,15C273,907 283,891 297,879C311,866 329,860 351,860C373,860 391,866 405,879C419,891 430,907 437,928l87,-15C520,868 503,829 472,798C441,767 401,751 351,751C301,751 261,767 231,798C200,829 183,868 179,913z" /><glyph unicode="Ǧ" horiz-adv-x="645" d="M596,625l-83,-87C488,557 466,570 445,579C424,587 399,591 372,591C321,591 280,571 249,531C218,490 203,429 203,347C203,258 215,196 238,159C261,122 298,103 347,103C382,103 413,111 441,126l0,157l-90,0l-16,116l265,0l0,-343C564,33 524,15 481,2C438,-11 394,-17 351,-17C246,-17 166,14 113,76C60,137 33,228 33,347C33,423 48,488 77,543C106,598 145,639 196,668C246,696 302,710 365,710C454,710 531,682 596,625M485,944l56,-65l-141,-129l-96,0l-142,129l57,65l133,-84z" /><glyph unicode="Ĝ" horiz-adv-x="645" d="M596,625l-83,-87C488,557 466,570 445,579C424,587 399,591 372,591C321,591 280,571 249,531C218,490 203,429 203,347C203,258 215,196 238,159C261,122 298,103 347,103C382,103 413,111 441,126l0,157l-90,0l-16,116l265,0l0,-343C564,33 524,15 481,2C438,-11 394,-17 351,-17C246,-17 166,14 113,76C60,137 33,228 33,347C33,423 48,488 77,543C106,598 145,639 196,668C246,696 302,710 365,710C454,710 531,682 596,625M219,755l-57,65l142,129l96,0l141,-129l-56,-65l-133,84z" /><glyph unicode="Ģ" horiz-adv-x="645" d="M596,625l-83,-87C488,557 466,570 445,579C424,587 399,591 372,591C321,591 280,571 249,531C218,490 203,429 203,347C203,258 215,196 238,159C261,122 298,103 347,103C382,103 413,111 441,126l0,157l-90,0l-16,116l265,0l0,-343C564,33 524,15 481,2C438,-11 394,-17 351,-17C246,-17 166,14 113,76C60,137 33,228 33,347C33,423 48,488 77,543C106,598 145,639 196,668C246,696 302,710 365,710C454,710 531,682 596,625M427,-145C427,-158 425,-170 421,-181C417,-193 410,-209 400,-229l-46,-96l-79,0l27,115C280,-193 269,-171 269,-145C269,-124 277,-105 292,-90C307,-75 325,-68 348,-68C371,-68 390,-75 405,-90C420,-105 427,-123 427,-145z" /><glyph unicode="Ġ" horiz-adv-x="645" d="M596,625l-83,-87C488,557 466,570 445,579C424,587 399,591 372,591C321,591 280,571 249,531C218,490 203,429 203,347C203,258 215,196 238,159C261,122 298,103 347,103C382,103 413,111 441,126l0,157l-90,0l-16,116l265,0l0,-343C564,33 524,15 481,2C438,-11 394,-17 351,-17C246,-17 166,14 113,76C60,137 33,228 33,347C33,423 48,488 77,543C106,598 145,639 196,668C246,696 302,710 365,710C454,710 531,682 596,625M445,847C445,821 436,800 419,783C401,766 378,757 351,757C324,757 301,766 284,783C267,800 258,821 258,847C258,873 267,895 284,912C301,929 324,937 351,937C378,937 401,929 419,912C436,895 445,873 445,847z" /><glyph unicode="Ɠ" horiz-adv-x="612" d="M762,814l-46,-98C703,723 692,728 682,731C671,734 660,735 648,735C613,735 596,714 596,673l0,-48l-77,-80C494,560 470,572 447,580C424,587 399,591 372,591C321,591 280,571 249,531C218,490 203,429 203,347C203,258 215,196 238,159C261,122 298,103 347,103C382,103 413,111 441,126l0,157l-90,0l-16,116l265,0l0,-343C564,33 524,15 481,2C438,-11 393,-17 348,-17C244,-17 166,14 113,76C60,137 33,228 33,347C33,422 47,488 76,543C105,598 143,639 191,668C239,696 291,710 346,710C388,710 425,703 457,689C458,740 473,780 502,809C531,837 572,851 627,851C679,851 724,839 762,814z" /><glyph unicode="Ɂ" horiz-adv-x="509" d="M147,330l55,15C243,357 273,374 292,395C310,416 319,446 319,485C319,518 310,544 293,563C276,582 251,591 219,591C195,591 172,587 151,578C129,569 106,554 83,535l-79,83C69,679 148,710 241,710C292,710 336,701 373,683C410,665 439,640 459,607C479,574 489,536 489,493C489,438 476,394 451,363C425,332 387,307 336,288l-25,-9l0,-279l-164,0z" /><glyph unicode="Ǥ" horiz-adv-x="665" d="M663,176l-63,0l0,-120C564,33 524,15 481,2C438,-11 394,-17 350,-17C245,-17 166,14 113,76C60,137 33,228 33,347C33,423 48,488 77,543C106,598 145,639 196,668C246,696 302,710 364,710C412,710 455,703 493,688C530,673 565,652 596,625l-82,-87C489,557 466,570 445,579C424,587 399,591 372,591C321,591 280,571 249,531C218,490 203,429 203,347C203,258 215,196 238,159C261,122 298,103 347,103C382,103 418,110 453,125l0,51l-108,0l0,95l108,0l0,43l-104,0l-14,100l265,0l0,-143l63,0z" /><glyph unicode="Ȝ" horiz-adv-x="520" d="M473,523C473,480 460,444 434,416C408,388 369,369 318,358C435,345 494,290 494,195C494,124 460,62 391,8C322,-46 215,-86 69,-113l-13,121C126,26 181,45 220,65C259,84 285,105 300,127C315,149 322,174 322,202C322,265 281,296 198,296l-73,0l20,118l56,0C234,414 260,422 278,438C296,453 305,476 305,505C305,532 298,553 283,568C268,583 245,591 214,591C168,591 121,572 74,535l-76,83C63,679 142,710 236,710C285,710 327,702 363,686C398,670 426,648 445,620C464,592 473,560 473,523z" /><glyph unicode="H" horiz-adv-x="666" d="M437,0l0,297l-208,0l0,-297l-164,0l0,693l164,0l0,-268l208,0l0,268l164,0l0,-693z" /><glyph unicode="Ħ" horiz-adv-x="677" d="M664,592l0,-92l-57,0l0,-500l-164,0l0,297l-208,0l0,-297l-164,0l0,500l-58,0l0,92l58,0l0,101l164,0l0,-101l208,0l0,101l164,0l0,-101M443,425l0,75l-208,0l0,-75z" /><glyph unicode="Ȟ" horiz-adv-x="666" d="M437,0l0,297l-208,0l0,-297l-164,0l0,693l164,0l0,-268l208,0l0,268l164,0l0,-693M466,944l56,-65l-141,-129l-96,0l-142,129l57,65l133,-84z" /><glyph unicode="Ĥ" horiz-adv-x="666" d="M437,0l0,297l-208,0l0,-297l-164,0l0,693l164,0l0,-268l208,0l0,268l164,0l0,-693M200,755l-57,65l142,129l96,0l141,-129l-56,-65l-133,84z" /><glyph unicode="Ḥ" horiz-adv-x="666" d="M437,0l0,297l-208,0l0,-297l-164,0l0,693l164,0l0,-268l208,0l0,268l164,0l0,-693M239,-150C239,-124 248,-102 266,-85C283,-68 306,-60 333,-60C360,-60 383,-68 400,-85C417,-102 426,-124 426,-150C426,-176 417,-197 400,-214C383,-231 360,-240 333,-240C306,-240 283,-231 266,-214C248,-197 239,-176 239,-150z" /><glyph unicode="Ɦ" horiz-adv-x="807" d="M743,693l0,-693l-164,0l0,297l-208,0l0,-297l-164,0l0,576l-29,0C163,576 152,572 144,565C136,558 132,547 132,534C132,517 138,495 149,469l-101,-45C35,444 24,464 16,483C8,502 4,523 4,544C4,590 21,626 54,653C87,680 131,693 187,693l184,0l0,-268l208,0l0,268z" /><glyph unicode="Ɥ" horiz-adv-x="619" d="M554,693l0,-693l-164,0l0,256C367,238 343,225 319,216C294,207 267,203 236,203C169,203 116,224 78,267C40,310 21,368 21,441l0,252l162,0l0,-250C183,402 191,373 207,354C223,335 248,325 283,325C327,325 363,338 390,364l0,329z" /><glyph unicode="Ƕ" horiz-adv-x="951" d="M909,248C909,188 897,138 872,99C847,59 815,30 776,11C737,-8 695,-17 650,-17C588,-17 537,0 497,33C457,66 437,115 437,180l0,117l-208,0l0,-297l-164,0l0,693l164,0l0,-268l208,0l0,268l164,0l0,-510C601,127 621,99 661,99C686,99 707,112 725,138C742,163 751,204 751,261C751,336 742,426 724,531l156,0C889,482 897,436 902,391C907,346 909,299 909,248z" /><glyph unicode="I" horiz-adv-x="293" d="M229,693l0,-693l-164,0l0,693z" /><glyph unicode="Ĳ" horiz-adv-x="610" d="M229,693l0,-693l-164,0l0,693M549,105C549,50 539,4 520,-32C500,-68 474,-96 442,-116C409,-137 371,-154 326,-169l-44,116C311,-42 333,-29 348,-14C363,1 373,18 378,37C383,56 385,81 385,111l0,582l164,0z" /><glyph unicode="Í" horiz-adv-x="293" d="M229,693l0,-693l-164,0l0,693M227,956l59,-118l-240,-87l-40,80z" /><glyph unicode="Ĭ" horiz-adv-x="293" d="M229,693l0,-693l-164,0l0,693M-27,913l87,15C67,907 77,891 91,879C105,866 123,860 145,860C167,860 185,866 199,879C213,891 224,907 231,928l87,-15C314,868 297,829 266,798C235,767 195,751 145,751C95,751 55,767 25,798C-6,829 -23,868 -27,913z" /><glyph unicode="Ǐ" horiz-adv-x="293" d="M229,693l0,-693l-164,0l0,693M279,944l56,-65l-141,-129l-96,0l-142,129l57,65l133,-84z" /><glyph unicode="Î" horiz-adv-x="293" d="M229,693l0,-693l-164,0l0,693M13,755l-57,65l142,129l96,0l141,-129l-56,-65l-133,84z" /><glyph unicode="Ȉ" horiz-adv-x="293" d="M229,693l0,-693l-164,0l0,693M15,986l97,-197l-81,-38l-122,182M191,986l88,-197l-83,-33l-113,180z" /><glyph unicode="Ï" horiz-adv-x="293" d="M229,693l0,-693l-164,0l0,693M110,846C110,824 102,805 87,790C71,775 52,767 29,767C6,767 -13,775 -28,790C-44,805 -52,824 -52,846C-52,868 -44,887 -28,902C-13,917 6,925 29,925C52,925 71,917 87,902C102,887 110,868 110,846M341,846C341,824 333,805 318,790C303,775 283,767 260,767C238,767 219,775 204,790C188,805 180,824 180,846C180,868 188,887 204,902C219,917 238,925 260,925C283,925 303,917 318,902C333,887 341,868 341,846z" /><glyph unicode="Ḯ" horiz-adv-x="293" d="M229,693l0,-693l-164,0l0,693M218,1097l86,-84l-158,-141l-60,54M105,827C105,805 97,786 81,771C65,756 46,748 24,748C1,748 -18,756 -33,771C-49,786 -57,805 -57,827C-57,849 -49,868 -33,883C-18,898 1,906 24,906C46,906 65,898 81,883C97,868 105,849 105,827M349,827C349,805 341,786 326,771C310,756 291,748 268,748C245,748 226,756 211,771C195,786 187,805 187,827C187,849 195,868 211,883C226,898 245,906 268,906C291,906 310,898 326,883C341,868 349,849 349,827z" /><glyph unicode="İ" horiz-adv-x="293" d="M229,693l0,-693l-164,0l0,693M239,847C239,821 230,800 213,783C195,766 172,757 145,757C118,757 95,766 78,783C61,800 52,821 52,847C52,873 61,895 78,912C95,929 118,937 145,937C172,937 195,929 213,912C230,895 239,873 239,847z" /><glyph unicode="Ị" horiz-adv-x="293" d="M229,693l0,-693l-164,0l0,693M52,-150C52,-124 61,-102 79,-85C96,-68 119,-60 146,-60C173,-60 196,-68 213,-85C230,-102 239,-124 239,-150C239,-176 230,-197 213,-214C196,-231 173,-240 146,-240C119,-240 96,-231 79,-214C61,-197 52,-176 52,-150z" /><glyph unicode="Ì" horiz-adv-x="293" d="M229,693l0,-693l-164,0l0,693M61,956l221,-125l-40,-80l-240,87z" /><glyph unicode="Ỉ" horiz-adv-x="293" d="M229,693l0,-693l-164,0l0,693M98,853C123,854 142,858 153,864C164,869 169,878 169,891C169,901 166,909 159,914C152,919 142,922 129,922C111,922 91,918 69,909l-26,66C73,992 109,1001 152,1001C191,1001 222,992 244,973C265,954 276,930 276,899C276,848 248,817 192,806l0,-42l-94,0z" /><glyph unicode="Ȋ" horiz-adv-x="293" d="M229,693l0,-693l-164,0l0,693M318,779l-87,-15C217,816 188,842 145,842C101,842 73,816 60,764l-87,15C-23,830 -6,871 24,904C54,936 94,952 145,952C196,952 236,936 267,903C297,870 314,829 318,779z" /><glyph unicode="Ī" horiz-adv-x="293" d="M229,693l0,-693l-164,0l0,693M298,781l-305,0l0,110l305,0z" /><glyph unicode="Į" horiz-adv-x="293" d="M229,693l0,-693l-29,0C121,-29 82,-63 82,-102C82,-133 100,-148 135,-148C151,-148 171,-145 196,-140l-11,-98C162,-243 138,-246 115,-246C72,-246 36,-235 9,-214C-18,-193 -32,-164 -32,-129C-32,-72 0,-26 65,8l0,685z" /><glyph unicode="Ɩ" horiz-adv-x="391" d="M396,26C358,-3 311,-17 255,-17C193,-17 144,-1 108,32C72,64 54,111 54,174l0,32l1,0l0,487l164,0l0,-488l-1,0l0,-42C218,143 223,128 232,118C241,107 255,102 272,102C285,102 297,104 306,107C315,110 327,116 342,123z" /><glyph unicode="Ɨ" horiz-adv-x="330" d="M324,420l0,-120l-77,0l0,-300l-164,0l0,300l-78,0l0,120l78,0l0,273l164,0l0,-273z" /><glyph unicode="Ĩ" horiz-adv-x="293" d="M229,693l0,-693l-164,0l0,693M131,788C114,800 101,806 90,806C79,806 69,803 62,796C54,789 46,777 37,762l-79,38C-29,835 -11,863 12,885C34,907 59,918 87,918C102,918 116,916 127,911C138,906 150,899 163,890C172,884 180,880 186,877C191,874 197,873 203,873C214,873 223,877 231,884C238,891 246,902 255,917l79,-39C320,843 302,814 280,793C257,772 232,761 204,761C189,761 177,763 166,768C155,773 144,779 131,788z" /><glyph unicode="J" horiz-adv-x="317" d="M256,105C256,50 246,4 227,-32C207,-68 181,-96 149,-116C116,-137 78,-154 33,-169l-44,116C18,-42 40,-29 55,-14C70,1 80,18 85,37C90,56 92,81 92,111l0,582l164,0z" /><glyph unicode="Ĵ" horiz-adv-x="317" d="M256,105C256,50 246,4 227,-32C207,-68 181,-96 149,-116C116,-137 78,-154 33,-169l-44,116C18,-42 40,-29 55,-14C70,1 80,18 85,37C90,56 92,81 92,111l0,582l164,0M41,755l-57,65l142,129l96,0l141,-129l-56,-65l-133,84z" /><glyph unicode="Ʝ" horiz-adv-x="354" d="M369,-110C333,-94 302,-83 276,-76C250,-173 180,-222 65,-222C16,-222 -21,-211 -48,-190C-75,-169 -88,-140 -88,-103C-88,-62 -73,-31 -43,-8C-14,14 28,25 83,25C96,25 110,24 125,23l0,670l164,0l0,-662C289,16 289,6 288,-1C325,-12 362,-26 398,-44M124,-53C111,-52 97,-51 83,-51C58,-51 39,-55 28,-63C16,-71 10,-83 10,-99C10,-126 26,-139 59,-139C82,-139 98,-132 108,-119C117,-106 123,-84 124,-53z" /><glyph unicode="Ɉ" horiz-adv-x="337" d="M333,282l-77,0l0,-177C256,50 246,4 227,-32C207,-68 181,-96 149,-116C116,-137 78,-154 33,-169l-44,116C18,-42 40,-29 55,-14C70,1 80,18 85,37C90,56 92,81 92,111l0,171l-78,0l0,122l78,0l0,289l164,0l0,-289l77,0z" /><glyph unicode="K" horiz-adv-x="633" d="M229,693l0,-693l-164,0l0,693M627,693l-221,-311l239,-382l-190,0l-221,370l220,323z" /><glyph unicode="Ǩ" horiz-adv-x="633" d="M229,693l0,-693l-164,0l0,693M627,693l-221,-311l239,-382l-190,0l-221,370l220,323M462,944l56,-65l-141,-129l-96,0l-142,129l57,65l133,-84z" /><glyph unicode="Ķ" horiz-adv-x="633" d="M229,693l0,-693l-164,0l0,693M627,693l-221,-311l239,-382l-190,0l-221,370l220,323M404,-145C404,-158 402,-170 398,-181C394,-193 387,-209 377,-229l-46,-96l-79,0l27,115C257,-193 246,-171 246,-145C246,-124 254,-105 269,-90C284,-75 302,-68 325,-68C348,-68 367,-75 382,-90C397,-105 404,-123 404,-145z" /><glyph unicode="Ƙ" horiz-adv-x="653" d="M234,370l139,221C400,635 426,666 452,684C478,701 512,710 553,710C594,710 632,698 666,673l-44,-94C607,588 592,593 576,593C562,593 550,590 541,583C531,576 519,562 506,541l-101,-159l240,-382l-190,0M229,693l0,-693l-164,0l0,693z" /><glyph unicode="L" horiz-adv-x="513" d="M229,693l0,-563l270,0l-17,-130l-417,0l0,693z" /><glyph unicode="Ǉ" horiz-adv-x="807" d="M229,693l0,-563l270,0l-17,-130l-417,0l0,693M746,105C746,50 736,4 717,-32C697,-68 671,-96 639,-116C606,-137 568,-154 523,-169l-44,116C508,-42 530,-29 545,-14C560,1 570,18 575,37C580,56 582,81 582,111l0,582l164,0z" /><glyph unicode="Ĺ" horiz-adv-x="513" d="M229,693l0,-563l270,0l-17,-130l-417,0l0,693M228,956l59,-118l-240,-87l-40,80z" /><glyph unicode="Ƚ" horiz-adv-x="530" d="M246,130l270,0l-17,-130l-417,0l0,302l-77,0l0,122l77,0l0,269l164,0l0,-269l78,0l0,-122l-78,0z" /><glyph unicode="Ɬ" horiz-adv-x="613" d="M599,130l-17,-130l-417,0l0,252l-1,0C110,253 69,266 42,289C15,312 1,344 1,383C1,420 13,448 36,469C59,490 90,500 127,500C139,500 152,499 165,496l0,197l164,0l0,-348C369,347 409,352 449,359l12,-85C417,265 373,259 329,256l0,-126M165,343l0,71C157,416 148,417 139,417C128,417 120,414 115,409C109,403 106,395 106,384C106,357 125,343 164,343z" /><glyph unicode="Ľ" horiz-adv-x="513" d="M229,693l0,-563l270,0l-17,-130l-417,0l0,693M358,478l55,215l-120,17l-23,-219z" /><glyph unicode="Ḽ" horiz-adv-x="513" d="M229,693l0,-563l270,0l-17,-130l-417,0l0,693M139,-265l-56,65l141,137l97,0l141,-137l-56,-65l-133,92z" /><glyph unicode="Ļ" horiz-adv-x="513" d="M229,693l0,-563l270,0l-17,-130l-417,0l0,693M353,-145C353,-158 351,-170 347,-181C343,-193 336,-209 326,-229l-46,-96l-79,0l27,115C206,-193 195,-171 195,-145C195,-124 203,-105 218,-90C233,-75 251,-68 274,-68C297,-68 316,-75 331,-90C346,-105 353,-123 353,-145z" /><glyph unicode="Ŀ" horiz-adv-x="513" d="M229,693l0,-563l270,0l-17,-130l-417,0l0,693M493,400C493,374 484,353 467,336C449,319 426,310 399,310C372,310 349,319 332,336C315,353 306,374 306,400C306,426 315,448 332,465C349,482 372,490 399,490C426,490 449,482 467,465C484,448 493,426 493,400z" /><glyph unicode="Ḷ" horiz-adv-x="513" d="M229,693l0,-563l270,0l-17,-130l-417,0l0,693M179,-150C179,-124 188,-102 206,-85C223,-68 246,-60 273,-60C300,-60 323,-68 340,-85C357,-102 366,-124 366,-150C366,-176 357,-197 340,-214C323,-231 300,-240 273,-240C246,-240 223,-231 206,-214C188,-197 179,-176 179,-150z" /><glyph unicode="ǈ" horiz-adv-x="779" d="M229,693l0,-563l270,0l-17,-130l-417,0l0,693M717,60C717,5 708,-41 691,-77C673,-113 649,-142 619,-163C588,-185 550,-204 504,-221l-53,115C477,-94 497,-82 512,-71C527,-60 538,-44 547,-25C555,-6 559,19 559,50l0,481l158,0M732,721C732,695 723,674 706,657C688,640 665,631 638,631C611,631 588,640 571,657C554,674 545,695 545,721C545,747 554,769 571,786C588,803 611,811 638,811C665,811 688,803 706,786C723,769 732,747 732,721z" /><glyph unicode="Ł" horiz-adv-x="553" d="M269,130l270,0l-17,-130l-417,0l0,225l-43,-27l-54,87l96,59l1,1l0,348l164,0l0,-247l127,79l54,-86l-181,-112z" /><glyph unicode="M" horiz-adv-x="786" d="M753,0l-161,0l-12,271C577,336 575,393 575,444C575,483 576,519 578,554l-107,-481l-155,0l-114,481C206,496 208,441 208,390C208,351 207,311 205,269l-12,-269l-160,0l52,693l207,0l104,-470l97,470l208,0z" /><glyph unicode="Ḿ" horiz-adv-x="786" d="M753,0l-161,0l-12,271C577,336 575,393 575,444C575,483 576,519 578,554l-107,-481l-155,0l-114,481C206,496 208,441 208,390C208,351 207,311 205,269l-12,-269l-160,0l52,693l207,0l104,-470l97,470l208,0M474,956l59,-118l-240,-87l-40,80z" /><glyph unicode="Ṁ" horiz-adv-x="786" d="M753,0l-161,0l-12,271C577,336 575,393 575,444C575,483 576,519 578,554l-107,-481l-155,0l-114,481C206,496 208,441 208,390C208,351 207,311 205,269l-12,-269l-160,0l52,693l207,0l104,-470l97,470l208,0M486,847C486,821 477,800 460,783C442,766 419,757 392,757C365,757 342,766 325,783C308,800 299,821 299,847C299,873 308,895 325,912C342,929 365,937 392,937C419,937 442,929 460,912C477,895 486,873 486,847z" /><glyph unicode="Ɯ" horiz-adv-x="915" d="M850,693l0,-693l-143,0l-12,64C672,36 648,16 623,3C598,-10 569,-17 538,-17C503,-17 474,-9 449,7C424,23 404,46 391,75C364,42 337,19 311,5C285,-10 255,-17 222,-17C170,-17 129,1 100,37C70,72 55,119 55,177l0,516l164,0l0,-508C219,160 224,140 234,126C244,112 258,105 277,105C293,105 308,111 322,122C336,133 352,149 370,172l0,5l0,516l165,0l0,-508C535,160 540,140 550,126C560,112 574,105 592,105C611,105 627,110 641,121C655,132 670,149 686,173l0,520z" /><glyph unicode="N" horiz-adv-x="663" d="M599,0l-209,0l-200,537C197,484 202,438 206,398C209,357 211,309 211,254l0,-254l-146,0l0,693l204,0l205,-538C459,246 452,332 452,413l0,280l147,0z" /><glyph unicode="Ǌ" horiz-adv-x="980" d="M599,0l-209,0l-200,537C197,484 202,438 206,398C209,357 211,309 211,254l0,-254l-146,0l0,693l204,0l205,-538C459,246 452,332 452,413l0,280l147,0M919,105C919,50 909,4 890,-32C870,-68 844,-96 812,-116C779,-137 741,-154 696,-169l-44,116C681,-42 703,-29 718,-14C733,1 743,18 748,37C753,56 755,81 755,111l0,582l164,0z" /><glyph unicode="Ń" horiz-adv-x="663" d="M599,0l-209,0l-200,537C197,484 202,438 206,398C209,357 211,309 211,254l0,-254l-146,0l0,693l204,0l205,-538C459,246 452,332 452,413l0,280l147,0M417,956l59,-118l-240,-87l-40,80z" /><glyph unicode="Ň" horiz-adv-x="663" d="M599,0l-209,0l-200,537C197,484 202,438 206,398C209,357 211,309 211,254l0,-254l-146,0l0,693l204,0l205,-538C459,246 452,332 452,413l0,280l147,0M469,944l56,-65l-141,-129l-96,0l-142,129l57,65l133,-84z" /><glyph unicode="Ṋ" horiz-adv-x="663" d="M599,0l-209,0l-200,537C197,484 202,438 206,398C209,357 211,309 211,254l0,-254l-146,0l0,693l204,0l205,-538C459,246 452,332 452,413l0,280l147,0M198,-265l-56,65l141,137l97,0l141,-137l-56,-65l-133,92z" /><glyph unicode="Ņ" horiz-adv-x="663" d="M599,0l-209,0l-200,537C197,484 202,438 206,398C209,357 211,309 211,254l0,-254l-146,0l0,693l204,0l205,-538C459,246 452,332 452,413l0,280l147,0M412,-145C412,-158 410,-170 406,-181C402,-193 395,-209 385,-229l-46,-96l-79,0l27,115C265,-193 254,-171 254,-145C254,-124 262,-105 277,-90C292,-75 310,-68 333,-68C356,-68 375,-75 390,-90C405,-105 412,-123 412,-145z" /><glyph unicode="Ṅ" horiz-adv-x="663" d="M599,0l-209,0l-200,537C197,484 202,438 206,398C209,357 211,309 211,254l0,-254l-146,0l0,693l204,0l205,-538C459,246 452,332 452,413l0,280l147,0M429,847C429,821 420,800 403,783C385,766 362,757 335,757C308,757 285,766 268,783C251,800 242,821 242,847C242,873 251,895 268,912C285,929 308,937 335,937C362,937 385,929 403,912C420,895 429,873 429,847z" /><glyph unicode="Ṇ" horiz-adv-x="663" d="M599,0l-209,0l-200,537C197,484 202,438 206,398C209,357 211,309 211,254l0,-254l-146,0l0,693l204,0l205,-538C459,246 452,332 452,413l0,280l147,0M238,-150C238,-124 247,-102 265,-85C282,-68 305,-60 332,-60C359,-60 382,-68 399,-85C416,-102 425,-124 425,-150C425,-176 416,-197 399,-214C382,-231 359,-240 332,-240C305,-240 282,-231 265,-214C247,-197 238,-176 238,-150z" /><glyph unicode="Ǹ" horiz-adv-x="663" d="M599,0l-209,0l-200,537C197,484 202,438 206,398C209,357 211,309 211,254l0,-254l-146,0l0,693l204,0l205,-538C459,246 452,332 452,413l0,280l147,0M251,956l221,-125l-40,-80l-240,87z" /><glyph unicode="Ŋ" horiz-adv-x="663" d="M599,693l0,-724C599,-94 581,-141 545,-173C509,-206 460,-222 398,-222C342,-222 295,-208 257,-179l54,97C326,-89 338,-95 347,-98C356,-101 368,-103 381,-103C398,-103 412,-98 421,-87C430,-77 435,-62 435,-42l0,42l-45,0l-200,537C197,484 202,438 206,398C209,357 211,309 211,254l0,-254l-146,0l0,693l204,0l205,-538C459,246 452,332 452,413l0,280z" /><glyph unicode="Ɲ" horiz-adv-x="663" d="M599,693l0,-693l-209,0l-200,537C197,484 202,438 206,398C209,357 211,309 211,254l0,-286C211,-94 194,-141 161,-173C128,-206 82,-222 25,-222C-31,-222 -78,-208 -116,-179l54,94C-48,-93 -36,-99 -26,-102C-17,-105 -5,-107 8,-107C26,-107 40,-102 50,-91C60,-81 65,-66 65,-46l0,739l204,0l205,-538C459,246 452,332 452,413l0,280z" /><glyph unicode="ǋ" horiz-adv-x="944" d="M599,0l-209,0l-200,537C197,484 202,438 206,398C209,357 211,309 211,254l0,-254l-146,0l0,693l204,0l205,-538C459,246 452,332 452,413l0,280l147,0M882,60C882,5 873,-41 856,-77C838,-113 814,-142 784,-163C753,-185 715,-204 669,-221l-53,115C642,-94 662,-82 677,-71C692,-60 703,-44 712,-25C720,-6 724,19 724,50l0,481l158,0M897,721C897,695 888,674 871,657C853,640 830,631 803,631C776,631 753,640 736,657C719,674 710,695 710,721C710,747 719,769 736,786C753,803 776,811 803,811C830,811 853,803 871,786C888,769 897,747 897,721z" /><glyph unicode="Ƞ" horiz-adv-x="654" d="M595,525l0,-735l-164,0l0,709C431,529 425,551 414,566C402,581 383,588 358,588C333,588 310,583 291,572C272,561 251,544 229,520l0,-520l-164,0l0,693l143,0l13,-66C250,656 280,677 310,690C340,703 375,710 415,710C474,710 519,693 550,659C580,625 595,580 595,525z" /><glyph unicode="Ñ" horiz-adv-x="663" d="M599,0l-209,0l-200,537C197,484 202,438 206,398C209,357 211,309 211,254l0,-254l-146,0l0,693l204,0l205,-538C459,246 452,332 452,413l0,280l147,0M321,788C304,800 291,806 280,806C269,806 259,803 252,796C244,789 236,777 227,762l-79,38C161,835 179,863 202,885C224,907 249,918 277,918C292,918 306,916 317,911C328,906 340,899 353,890C362,884 370,880 376,877C381,874 387,873 393,873C404,873 413,877 421,884C428,891 436,902 445,917l79,-39C510,843 492,814 470,793C447,772 422,761 394,761C379,761 367,763 356,768C345,773 334,779 321,788z" /><glyph unicode="O" horiz-adv-x="691" d="M658,347C658,272 646,207 621,152C596,97 560,56 513,27C466,-2 410,-17 345,-17C280,-17 225,-3 178,26C131,55 96,96 71,151C46,205 33,270 33,347C33,422 46,486 71,541C96,596 131,638 178,667C225,696 280,710 345,710C444,710 521,678 576,615C631,552 658,462 658,347M205,347C205,262 217,200 240,161C263,122 298,103 345,103C393,103 429,122 452,161C475,199 486,261 486,347C486,433 474,495 451,533C428,571 392,590 345,590C298,590 263,571 240,533C217,494 205,432 205,347z" /><glyph unicode="Ȣ" horiz-adv-x="651" d="M618,218C618,176 606,137 583,101C559,65 525,36 481,15C436,-6 384,-17 325,-17C266,-17 214,-7 170,14C126,35 92,63 69,99C45,134 33,174 33,217C33,259 44,296 67,327C89,358 121,381 163,398C104,430 74,481 74,551l0,142l164,0l0,-149C238,513 245,489 258,473C271,457 294,449 326,449C385,449 414,481 414,544l0,149l164,0l0,-142C578,518 570,488 555,463C539,437 516,416 487,400C530,384 562,361 585,330C607,299 618,261 618,218M446,220C446,255 436,283 415,304C394,324 364,334 325,334C286,334 257,324 236,304C215,283 205,255 205,219C205,182 215,154 236,134C257,113 286,103 325,103C366,103 396,113 416,134C436,154 446,183 446,220z" /><glyph unicode="Ó" horiz-adv-x="691" d="M658,347C658,272 646,207 621,152C596,97 560,56 513,27C466,-2 410,-17 345,-17C280,-17 225,-3 178,26C131,55 96,96 71,151C46,205 33,270 33,347C33,422 46,486 71,541C96,596 131,638 178,667C225,696 280,710 345,710C444,710 521,678 576,615C631,552 658,462 658,347M205,347C205,262 217,200 240,161C263,122 298,103 345,103C393,103 429,122 452,161C475,199 486,261 486,347C486,433 474,495 451,533C428,571 392,590 345,590C298,590 263,571 240,533C217,494 205,432 205,347M426,956l59,-118l-240,-87l-40,80z" /><glyph unicode="Ŏ" horiz-adv-x="691" d="M658,347C658,272 646,207 621,152C596,97 560,56 513,27C466,-2 410,-17 345,-17C280,-17 225,-3 178,26C131,55 96,96 71,151C46,205 33,270 33,347C33,422 46,486 71,541C96,596 131,638 178,667C225,696 280,710 345,710C444,710 521,678 576,615C631,552 658,462 658,347M205,347C205,262 217,200 240,161C263,122 298,103 345,103C393,103 429,122 452,161C475,199 486,261 486,347C486,433 474,495 451,533C428,571 392,590 345,590C298,590 263,571 240,533C217,494 205,432 205,347M172,913l87,15C266,907 276,891 290,879C304,866 322,860 344,860C366,860 384,866 398,879C412,891 423,907 430,928l87,-15C513,868 496,829 465,798C434,767 394,751 344,751C294,751 254,767 224,798C193,829 176,868 172,913z" /><glyph unicode="Ǒ" horiz-adv-x="691" d="M658,347C658,272 646,207 621,152C596,97 560,56 513,27C466,-2 410,-17 345,-17C280,-17 225,-3 178,26C131,55 96,96 71,151C46,205 33,270 33,347C33,422 46,486 71,541C96,596 131,638 178,667C225,696 280,710 345,710C444,710 521,678 576,615C631,552 658,462 658,347M205,347C205,262 217,200 240,161C263,122 298,103 345,103C393,103 429,122 452,161C475,199 486,261 486,347C486,433 474,495 451,533C428,571 392,590 345,590C298,590 263,571 240,533C217,494 205,432 205,347M478,944l56,-65l-141,-129l-96,0l-142,129l57,65l133,-84z" /><glyph unicode="Ɵ" horiz-adv-x="691" d="M658,347C658,272 646,207 621,152C596,97 560,56 513,27C466,-2 410,-17 345,-17C280,-17 225,-3 178,26C131,55 96,96 71,151C46,205 33,270 33,347C33,422 46,486 71,541C96,596 131,638 178,667C225,696 280,710 345,710C444,710 521,678 576,615C631,552 658,462 658,347M202,397l287,0C484,464 470,513 446,544C422,575 388,590 345,590C302,590 269,575 245,544C221,513 207,464 202,397M490,305l-289,0C208,170 256,103 345,103C389,103 423,119 448,151C472,183 486,234 490,305z" /><glyph unicode="Ô" horiz-adv-x="691" d="M658,347C658,272 646,207 621,152C596,97 560,56 513,27C466,-2 410,-17 345,-17C280,-17 225,-3 178,26C131,55 96,96 71,151C46,205 33,270 33,347C33,422 46,486 71,541C96,596 131,638 178,667C225,696 280,710 345,710C444,710 521,678 576,615C631,552 658,462 658,347M205,347C205,262 217,200 240,161C263,122 298,103 345,103C393,103 429,122 452,161C475,199 486,261 486,347C486,433 474,495 451,533C428,571 392,590 345,590C298,590 263,571 240,533C217,494 205,432 205,347M212,755l-57,65l142,129l96,0l141,-129l-56,-65l-133,84z" /><glyph unicode="Ố" horiz-adv-x="691" d="M658,347C658,272 646,207 621,152C596,97 560,56 513,27C466,-2 410,-17 345,-17C280,-17 225,-3 178,26C131,55 96,96 71,151C46,205 33,270 33,347C33,422 46,486 71,541C96,596 131,638 178,667C225,696 280,710 345,710C444,710 521,678 576,615C631,552 658,462 658,347M205,347C205,262 217,200 240,161C263,122 298,103 345,103C393,103 429,122 452,161C475,199 486,261 486,347C486,433 474,495 451,533C428,571 392,590 345,590C298,590 263,571 240,533C217,494 205,432 205,347M212,721l-57,65l142,129l96,0l141,-129l-56,-65l-133,84M580,1094l86,-84l-158,-141l-60,54z" /><glyph unicode="Ộ" horiz-adv-x="691" d="M658,347C658,272 646,207 621,152C596,97 560,56 513,27C466,-2 410,-17 345,-17C280,-17 225,-3 178,26C131,55 96,96 71,151C46,205 33,270 33,347C33,422 46,486 71,541C96,596 131,638 178,667C225,696 280,710 345,710C444,710 521,678 576,615C631,552 658,462 658,347M205,347C205,262 217,200 240,161C263,122 298,103 345,103C393,103 429,122 452,161C475,199 486,261 486,347C486,433 474,495 451,533C428,571 392,590 345,590C298,590 263,571 240,533C217,494 205,432 205,347M212,755l-57,65l142,129l96,0l141,-129l-56,-65l-133,84M251,-150C251,-124 260,-102 278,-85C295,-68 318,-60 345,-60C372,-60 395,-68 412,-85C429,-102 438,-124 438,-150C438,-176 429,-197 412,-214C395,-231 372,-240 345,-240C318,-240 295,-231 278,-214C260,-197 251,-176 251,-150z" /><glyph unicode="Ồ" horiz-adv-x="691" d="M658,347C658,272 646,207 621,152C596,97 560,56 513,27C466,-2 410,-17 345,-17C280,-17 225,-3 178,26C131,55 96,96 71,151C46,205 33,270 33,347C33,422 46,486 71,541C96,596 131,638 178,667C225,696 280,710 345,710C444,710 521,678 576,615C631,552 658,462 658,347M205,347C205,262 217,200 240,161C263,122 298,103 345,103C393,103 429,122 452,161C475,199 486,261 486,347C486,433 474,495 451,533C428,571 392,590 345,590C298,590 263,571 240,533C217,494 205,432 205,347M211,721l-57,65l142,129l96,0l141,-129l-56,-65l-133,84M111,1094l131,-171l-59,-54l-158,141z" /><glyph unicode="Ổ" horiz-adv-x="691" d="M658,347C658,272 646,207 621,152C596,97 560,56 513,27C466,-2 410,-17 345,-17C280,-17 225,-3 178,26C131,55 96,96 71,151C46,205 33,270 33,347C33,422 46,486 71,541C96,596 131,638 178,667C225,696 280,710 345,710C444,710 521,678 576,615C631,552 658,462 658,347M205,347C205,262 217,200 240,161C263,122 298,103 345,103C393,103 429,122 452,161C475,199 486,261 486,347C486,433 474,495 451,533C428,571 392,590 345,590C298,590 263,571 240,533C217,494 205,432 205,347M211,721l-57,65l142,129l96,0l141,-129l-56,-65l-133,84M469,945C494,946 513,950 524,956C535,961 540,970 540,983C540,993 537,1001 530,1006C523,1011 513,1014 500,1014C482,1014 462,1010 440,1001l-26,66C444,1084 480,1093 523,1093C562,1093 593,1084 615,1065C636,1046 647,1022 647,991C647,940 619,909 563,898l0,-42l-94,0z" /><glyph unicode="Ỗ" horiz-adv-x="691" d="M658,347C658,272 646,207 621,152C596,97 560,56 513,27C466,-2 410,-17 345,-17C280,-17 225,-3 178,26C131,55 96,96 71,151C46,205 33,270 33,347C33,422 46,486 71,541C96,596 131,638 178,667C225,696 280,710 345,710C444,710 521,678 576,615C631,552 658,462 658,347M205,347C205,262 217,200 240,161C263,122 298,103 345,103C393,103 429,122 452,161C475,199 486,261 486,347C486,433 474,495 451,533C428,571 392,590 345,590C298,590 263,571 240,533C217,494 205,432 205,347M210,721l-57,65l142,129l96,0l141,-129l-56,-65l-133,84M328,967C319,973 312,977 306,980C299,983 293,984 287,984C276,984 266,981 259,974C251,967 243,957 234,942l-79,36C168,1011 186,1037 209,1058C231,1079 256,1089 284,1089C299,1089 313,1087 324,1083C335,1078 347,1072 360,1063C369,1057 377,1053 383,1050C388,1047 394,1046 400,1046C411,1046 420,1049 428,1056C435,1063 443,1073 452,1088l79,-37C517,1018 499,991 477,971C454,951 429,941 401,941C386,941 374,943 363,948C352,953 340,959 328,967z" /><glyph unicode="Ȍ" horiz-adv-x="691" d="M658,347C658,272 646,207 621,152C596,97 560,56 513,27C466,-2 410,-17 345,-17C280,-17 225,-3 178,26C131,55 96,96 71,151C46,205 33,270 33,347C33,422 46,486 71,541C96,596 131,638 178,667C225,696 280,710 345,710C444,710 521,678 576,615C631,552 658,462 658,347M205,347C205,262 217,200 240,161C263,122 298,103 345,103C393,103 429,122 452,161C475,199 486,261 486,347C486,433 474,495 451,533C428,571 392,590 345,590C298,590 263,571 240,533C217,494 205,432 205,347M214,986l97,-197l-81,-38l-122,182M390,986l88,-197l-83,-33l-113,180z" /><glyph unicode="Ö" horiz-adv-x="691" d="M658,347C658,272 646,207 621,152C596,97 560,56 513,27C466,-2 410,-17 345,-17C280,-17 225,-3 178,26C131,55 96,96 71,151C46,205 33,270 33,347C33,422 46,486 71,541C96,596 131,638 178,667C225,696 280,710 345,710C444,710 521,678 576,615C631,552 658,462 658,347M205,347C205,262 217,200 240,161C263,122 298,103 345,103C393,103 429,122 452,161C475,199 486,261 486,347C486,433 474,495 451,533C428,571 392,590 345,590C298,590 263,571 240,533C217,494 205,432 205,347M309,846C309,824 301,805 286,790C270,775 251,767 228,767C205,767 186,775 171,790C155,805 147,824 147,846C147,868 155,887 171,902C186,917 205,925 228,925C251,925 270,917 286,902C301,887 309,868 309,846M540,846C540,824 532,805 517,790C502,775 482,767 459,767C437,767 418,775 403,790C387,805 379,824 379,846C379,868 387,887 403,902C418,917 437,925 459,925C482,925 502,917 517,902C532,887 540,868 540,846z" /><glyph unicode="Ȫ" horiz-adv-x="691" d="M658,347C658,272 646,207 621,152C596,97 560,56 513,27C466,-2 410,-17 345,-17C280,-17 225,-3 178,26C131,55 96,96 71,151C46,205 33,270 33,347C33,422 46,486 71,541C96,596 131,638 178,667C225,696 280,710 345,710C444,710 521,678 576,615C631,552 658,462 658,347M205,347C205,262 217,200 240,161C263,122 298,103 345,103C393,103 429,122 452,161C475,199 486,261 486,347C486,433 474,495 451,533C428,571 392,590 345,590C298,590 263,571 240,533C217,494 205,432 205,347M310,824C310,802 302,783 287,768C271,753 252,745 229,745C206,745 187,753 172,768C156,783 148,802 148,824C148,846 156,865 172,880C187,895 206,903 229,903C252,903 271,895 287,880C302,865 310,846 310,824M541,824C541,802 533,783 518,768C503,753 483,745 460,745C438,745 419,753 404,768C388,783 380,802 380,824C380,846 388,865 404,880C419,895 438,903 460,903C483,903 503,895 518,880C533,865 541,846 541,824M500,940l-305,0l0,110l305,0z" /><glyph unicode="Ȯ" horiz-adv-x="691" d="M658,347C658,272 646,207 621,152C596,97 560,56 513,27C466,-2 410,-17 345,-17C280,-17 225,-3 178,26C131,55 96,96 71,151C46,205 33,270 33,347C33,422 46,486 71,541C96,596 131,638 178,667C225,696 280,710 345,710C444,710 521,678 576,615C631,552 658,462 658,347M205,347C205,262 217,200 240,161C263,122 298,103 345,103C393,103 429,122 452,161C475,199 486,261 486,347C486,433 474,495 451,533C428,571 392,590 345,590C298,590 263,571 240,533C217,494 205,432 205,347M438,847C438,821 429,800 412,783C394,766 371,757 344,757C317,757 294,766 277,783C260,800 251,821 251,847C251,873 260,895 277,912C294,929 317,937 344,937C371,937 394,929 412,912C429,895 438,873 438,847z" /><glyph unicode="Ȱ" horiz-adv-x="691" d="M658,347C658,272 646,207 621,152C596,97 560,56 513,27C466,-2 410,-17 345,-17C280,-17 225,-3 178,26C131,55 96,96 71,151C46,205 33,270 33,347C33,422 46,486 71,541C96,596 131,638 178,667C225,696 280,710 345,710C444,710 521,678 576,615C631,552 658,462 658,347M205,347C205,262 217,200 240,161C263,122 298,103 345,103C393,103 429,122 452,161C475,199 486,261 486,347C486,433 474,495 451,533C428,571 392,590 345,590C298,590 263,571 240,533C217,494 205,432 205,347M437,826C437,800 428,779 411,762C393,745 370,736 343,736C316,736 293,745 276,762C259,779 250,800 250,826C250,852 259,874 276,891C293,908 316,916 343,916C370,916 393,908 411,891C428,874 437,852 437,826M497,941l-305,0l0,110l305,0z" /><glyph unicode="Ọ" horiz-adv-x="691" d="M658,347C658,272 646,207 621,152C596,97 560,56 513,27C466,-2 410,-17 345,-17C280,-17 225,-3 178,26C131,55 96,96 71,151C46,205 33,270 33,347C33,422 46,486 71,541C96,596 131,638 178,667C225,696 280,710 345,710C444,710 521,678 576,615C631,552 658,462 658,347M205,347C205,262 217,200 240,161C263,122 298,103 345,103C393,103 429,122 452,161C475,199 486,261 486,347C486,433 474,495 451,533C428,571 392,590 345,590C298,590 263,571 240,533C217,494 205,432 205,347M251,-150C251,-124 260,-102 278,-85C295,-68 318,-60 345,-60C372,-60 395,-68 412,-85C429,-102 438,-124 438,-150C438,-176 429,-197 412,-214C395,-231 372,-240 345,-240C318,-240 295,-231 278,-214C260,-197 251,-176 251,-150z" /><glyph unicode="Ò" horiz-adv-x="691" d="M658,347C658,272 646,207 621,152C596,97 560,56 513,27C466,-2 410,-17 345,-17C280,-17 225,-3 178,26C131,55 96,96 71,151C46,205 33,270 33,347C33,422 46,486 71,541C96,596 131,638 178,667C225,696 280,710 345,710C444,710 521,678 576,615C631,552 658,462 658,347M205,347C205,262 217,200 240,161C263,122 298,103 345,103C393,103 429,122 452,161C475,199 486,261 486,347C486,433 474,495 451,533C428,571 392,590 345,590C298,590 263,571 240,533C217,494 205,432 205,347M260,956l221,-125l-40,-80l-240,87z" /><glyph unicode="Ỏ" horiz-adv-x="691" d="M658,347C658,272 646,207 621,152C596,97 560,56 513,27C466,-2 410,-17 345,-17C280,-17 225,-3 178,26C131,55 96,96 71,151C46,205 33,270 33,347C33,422 46,486 71,541C96,596 131,638 178,667C225,696 280,710 345,710C444,710 521,678 576,615C631,552 658,462 658,347M205,347C205,262 217,200 240,161C263,122 298,103 345,103C393,103 429,122 452,161C475,199 486,261 486,347C486,433 474,495 451,533C428,571 392,590 345,590C298,590 263,571 240,533C217,494 205,432 205,347M297,853C322,854 341,858 352,864C363,869 368,878 368,891C368,901 365,909 358,914C351,919 341,922 328,922C310,922 290,918 268,909l-26,66C272,992 308,1001 351,1001C390,1001 421,992 443,973C464,954 475,930 475,899C475,848 447,817 391,806l0,-42l-94,0z" /><glyph unicode="Ơ" horiz-adv-x="715" d="M611,563C642,506 658,434 658,347C658,272 646,207 621,152C596,97 560,56 513,27C466,-2 410,-17 345,-17C280,-17 225,-3 178,26C131,55 96,96 71,151C46,205 33,270 33,347C33,422 46,486 71,541C96,596 131,638 178,667C225,696 280,710 345,710C432,710 503,685 557,634C574,636 587,642 594,651C601,660 605,673 605,690C605,703 604,715 602,725C600,734 597,745 592,758l102,15C707,749 713,720 713,685C713,651 704,624 687,604C669,583 644,570 611,563M486,347C486,433 474,495 451,533C428,571 392,590 345,590C298,590 263,571 240,533C217,494 205,432 205,347C205,262 217,200 240,161C263,122 298,103 345,103C393,103 429,122 452,161C475,199 486,261 486,347z" /><glyph unicode="Ớ" horiz-adv-x="715" d="M485,838l-240,-87l-40,80l221,125M611,563C642,506 658,434 658,347C658,272 646,207 621,152C596,97 560,56 513,27C466,-2 410,-17 345,-17C280,-17 225,-3 178,26C131,55 96,96 71,151C46,205 33,270 33,347C33,422 46,486 71,541C96,596 131,638 178,667C225,696 280,710 345,710C432,710 503,685 557,634C574,636 587,642 594,651C601,660 605,673 605,690C605,703 604,715 602,725C600,734 597,745 592,758l102,15C707,749 713,720 713,685C713,651 704,624 687,604C669,583 644,570 611,563M486,347C486,433 474,495 451,533C428,571 392,590 345,590C298,590 263,571 240,533C217,494 205,432 205,347C205,262 217,200 240,161C263,122 298,103 345,103C393,103 429,122 452,161C475,199 486,261 486,347z" /><glyph unicode="Ợ" horiz-adv-x="715" d="M611,563C642,506 658,434 658,347C658,272 646,207 621,152C596,97 560,56 513,27C466,-2 410,-17 345,-17C280,-17 225,-3 178,26C131,55 96,96 71,151C46,205 33,270 33,347C33,422 46,486 71,541C96,596 131,638 178,667C225,696 280,710 345,710C432,710 503,685 557,634C574,636 587,642 594,651C601,660 605,673 605,690C605,703 604,715 602,725C600,734 597,745 592,758l102,15C707,749 713,720 713,685C713,651 704,624 687,604C669,583 644,570 611,563M486,347C486,433 474,495 451,533C428,571 392,590 345,590C298,590 263,571 240,533C217,494 205,432 205,347C205,262 217,200 240,161C263,122 298,103 345,103C393,103 429,122 452,161C475,199 486,261 486,347M438,-150C438,-176 429,-197 412,-214C395,-231 372,-240 345,-240C318,-240 295,-231 278,-214C260,-197 251,-176 251,-150C251,-124 260,-102 278,-85C295,-68 318,-60 345,-60C372,-60 395,-68 412,-85C429,-102 438,-124 438,-150z" /><glyph unicode="Ờ" horiz-adv-x="715" d="M481,831l-40,-80l-240,87l59,118M611,563C642,506 658,434 658,347C658,272 646,207 621,152C596,97 560,56 513,27C466,-2 410,-17 345,-17C280,-17 225,-3 178,26C131,55 96,96 71,151C46,205 33,270 33,347C33,422 46,486 71,541C96,596 131,638 178,667C225,696 280,710 345,710C432,710 503,685 557,634C574,636 587,642 594,651C601,660 605,673 605,690C605,703 604,715 602,725C600,734 597,745 592,758l102,15C707,749 713,720 713,685C713,651 704,624 687,604C669,583 644,570 611,563M486,347C486,433 474,495 451,533C428,571 392,590 345,590C298,590 263,571 240,533C217,494 205,432 205,347C205,262 217,200 240,161C263,122 298,103 345,103C393,103 429,122 452,161C475,199 486,261 486,347z" /><glyph unicode="Ở" horiz-adv-x="715" d="M268,909l-26,66C272,992 308,1001 351,1001C390,1001 421,992 443,973C464,954 475,930 475,899C475,848 447,817 391,806l0,-42l-94,0l0,89C322,854 341,858 352,864C363,869 368,878 368,891C368,901 365,909 358,914C351,919 341,922 328,922C310,922 290,918 268,909M611,563C642,506 658,434 658,347C658,272 646,207 621,152C596,97 560,56 513,27C466,-2 410,-17 345,-17C280,-17 225,-3 178,26C131,55 96,96 71,151C46,205 33,270 33,347C33,422 46,486 71,541C96,596 131,638 178,667C225,696 280,710 345,710C432,710 503,685 557,634C574,636 587,642 594,651C601,660 605,673 605,690C605,703 604,715 602,725C600,734 597,745 592,758l102,15C707,749 713,720 713,685C713,651 704,624 687,604C669,583 644,570 611,563M486,347C486,433 474,495 451,533C428,571 392,590 345,590C298,590 263,571 240,533C217,494 205,432 205,347C205,262 217,200 240,161C263,122 298,103 345,103C393,103 429,122 452,161C475,199 486,261 486,347z" /><glyph unicode="Ỡ" horiz-adv-x="715" d="M236,762l-79,38C170,835 188,863 211,885C233,907 258,918 286,918C301,918 315,916 326,911C337,906 349,899 362,890C371,884 379,880 385,877C390,874 396,873 402,873C413,873 422,877 430,884C437,891 445,902 454,917l79,-39C519,843 501,814 479,793C456,772 431,761 403,761C388,761 376,763 365,768C354,773 343,779 330,788C313,800 300,806 289,806C278,806 268,803 261,796C253,789 245,777 236,762M611,563C642,506 658,434 658,347C658,272 646,207 621,152C596,97 560,56 513,27C466,-2 410,-17 345,-17C280,-17 225,-3 178,26C131,55 96,96 71,151C46,205 33,270 33,347C33,422 46,486 71,541C96,596 131,638 178,667C225,696 280,710 345,710C432,710 503,685 557,634C574,636 587,642 594,651C601,660 605,673 605,690C605,703 604,715 602,725C600,734 597,745 592,758l102,15C707,749 713,720 713,685C713,651 704,624 687,604C669,583 644,570 611,563M486,347C486,433 474,495 451,533C428,571 392,590 345,590C298,590 263,571 240,533C217,494 205,432 205,347C205,262 217,200 240,161C263,122 298,103 345,103C393,103 429,122 452,161C475,199 486,261 486,347z" /><glyph unicode="Ő" horiz-adv-x="691" d="M658,347C658,272 646,207 621,152C596,97 560,56 513,27C466,-2 410,-17 345,-17C280,-17 225,-3 178,26C131,55 96,96 71,151C46,205 33,270 33,347C33,422 46,486 71,541C96,596 131,638 178,667C225,696 280,710 345,710C444,710 521,678 576,615C631,552 658,462 658,347M205,347C205,262 217,200 240,161C263,122 298,103 345,103C393,103 429,122 452,161C475,199 486,261 486,347C486,433 474,495 451,533C428,571 392,590 345,590C298,590 263,571 240,533C217,494 205,432 205,347M300,986l108,-50l-113,-180l-83,33M476,986l106,-53l-121,-182l-82,38z" /><glyph unicode="Ƣ" horiz-adv-x="960" d="M896,519l0,-729l-164,0l0,735C732,572 712,596 672,596C649,596 625,590 599,579C638,518 658,440 658,347C658,272 646,207 621,152C596,97 560,56 513,27C466,-2 410,-17 345,-17C280,-17 225,-3 178,26C131,55 96,96 71,151C46,205 33,270 33,347C33,422 46,486 71,541C96,596 131,638 178,667C225,696 280,710 345,710C415,710 475,692 524,657C550,675 577,689 604,698C631,707 660,711 692,711C756,711 806,695 842,662C878,629 896,582 896,519M486,347C486,433 474,495 451,533C428,571 392,590 345,590C298,590 263,571 240,533C217,494 205,432 205,347C205,262 217,200 240,161C263,122 298,103 345,103C393,103 429,122 452,161C475,199 486,261 486,347z" /><glyph unicode="Ȏ" horiz-adv-x="691" d="M658,347C658,272 646,207 621,152C596,97 560,56 513,27C466,-2 410,-17 345,-17C280,-17 225,-3 178,26C131,55 96,96 71,151C46,205 33,270 33,347C33,422 46,486 71,541C96,596 131,638 178,667C225,696 280,710 345,710C444,710 521,678 576,615C631,552 658,462 658,347M205,347C205,262 217,200 240,161C263,122 298,103 345,103C393,103 429,122 452,161C475,199 486,261 486,347C486,433 474,495 451,533C428,571 392,590 345,590C298,590 263,571 240,533C217,494 205,432 205,347M517,779l-87,-15C416,816 387,842 344,842C300,842 272,816 259,764l-87,15C176,830 193,871 223,904C253,936 293,952 344,952C395,952 435,936 466,903C496,870 513,829 517,779z" /><glyph unicode="Ō" horiz-adv-x="691" d="M658,347C658,272 646,207 621,152C596,97 560,56 513,27C466,-2 410,-17 345,-17C280,-17 225,-3 178,26C131,55 96,96 71,151C46,205 33,270 33,347C33,422 46,486 71,541C96,596 131,638 178,667C225,696 280,710 345,710C444,710 521,678 576,615C631,552 658,462 658,347M205,347C205,262 217,200 240,161C263,122 298,103 345,103C393,103 429,122 452,161C475,199 486,261 486,347C486,433 474,495 451,533C428,571 392,590 345,590C298,590 263,571 240,533C217,494 205,432 205,347M497,781l-305,0l0,110l305,0z" /><glyph unicode="Ṓ" horiz-adv-x="691" d="M658,347C658,272 646,207 621,152C596,97 560,56 513,27C466,-2 410,-17 345,-17C280,-17 225,-3 178,26C131,55 96,96 71,151C46,205 33,270 33,347C33,422 46,486 71,541C96,596 131,638 178,667C225,696 280,710 345,710C444,710 521,678 576,615C631,552 658,462 658,347M205,347C205,262 217,200 240,161C263,122 298,103 345,103C393,103 429,122 452,161C475,199 486,261 486,347C486,433 474,495 451,533C428,571 392,590 345,590C298,590 263,571 240,533C217,494 205,432 205,347M497,761l-305,0l0,110l305,0M427,1106l59,-118l-240,-87l-40,80z" /><glyph unicode="Ṑ" horiz-adv-x="691" d="M261,1114l221,-125l-40,-80l-240,87M497,761l-305,0l0,110l305,0M658,347C658,272 646,207 621,152C596,97 560,56 513,27C466,-2 410,-17 345,-17C280,-17 225,-3 178,26C131,55 96,96 71,151C46,205 33,270 33,347C33,422 46,486 71,541C96,596 131,638 178,667C225,696 280,710 345,710C444,710 521,678 576,615C631,552 658,462 658,347M205,347C205,262 217,200 240,161C263,122 298,103 345,103C393,103 429,122 452,161C475,199 486,261 486,347C486,433 474,495 451,533C428,571 392,590 345,590C298,590 263,571 240,533C217,494 205,432 205,347z" /><glyph unicode="Ꞷ" horiz-adv-x="887" d="M839,302C839,89 764,-17 613,-17C523,-17 466,24 442,107C431,66 412,35 383,14C354,-7 319,-17 278,-17C201,-17 143,9 105,60C67,111 48,191 48,302C48,387 55,460 69,520C83,580 102,638 126,693l152,0C256,628 240,567 229,510C218,453 212,387 212,311C212,235 218,181 231,150C244,119 265,103 296,103C340,103 362,133 362,193l0,206l162,0l0,-206C524,160 530,137 541,124C552,110 569,103 592,103C621,103 642,118 655,149C668,180 675,233 675,310C675,387 669,454 657,511C644,568 626,628 602,693l158,0C784,638 803,581 818,521C832,460 839,387 839,302z" /><glyph unicode="Ǫ" horiz-adv-x="691" d="M456,0C377,-29 338,-63 338,-102C338,-133 356,-148 391,-148C407,-148 427,-145 452,-140l-11,-98C418,-243 394,-246 371,-246C328,-246 292,-235 265,-214C238,-193 224,-164 224,-129C224,-82 245,-44 287,-13C206,0 144,37 100,100C55,162 33,244 33,347C33,422 46,486 71,541C96,596 131,638 178,667C225,696 280,710 345,710C444,710 521,678 576,615C631,552 658,462 658,347C658,258 640,183 605,123C570,62 520,21 456,0M486,347C486,433 474,495 451,533C428,571 392,590 345,590C298,590 263,571 240,533C217,494 205,432 205,347C205,262 217,200 240,161C263,122 298,103 345,103C393,103 429,122 452,161C475,199 486,261 486,347z" /><glyph unicode="Ǭ" horiz-adv-x="691" d="M497,891l0,-110l-305,0l0,110M456,0C377,-29 338,-63 338,-102C338,-133 356,-148 391,-148C407,-148 427,-145 452,-140l-11,-98C418,-243 394,-246 371,-246C328,-246 292,-235 265,-214C238,-193 224,-164 224,-129C224,-82 245,-44 287,-13C206,0 144,37 100,100C55,162 33,244 33,347C33,422 46,486 71,541C96,596 131,638 178,667C225,696 280,710 345,710C444,710 521,678 576,615C631,552 658,462 658,347C658,258 640,183 605,123C570,62 520,21 456,0M486,347C486,433 474,495 451,533C428,571 392,590 345,590C298,590 263,571 240,533C217,494 205,432 205,347C205,262 217,200 240,161C263,122 298,103 345,103C393,103 429,122 452,161C475,199 486,261 486,347z" /><glyph unicode="Ɔ" horiz-adv-x="575" d="M542,348C542,271 529,205 503,150C477,95 440,53 393,25C346,-3 291,-17 228,-17C182,-17 141,-9 104,8C67,25 35,46 8,72l73,93C106,147 128,133 149,124C170,115 193,110 220,110C267,110 304,129 331,167C357,205 370,265 370,348C370,509 324,589 232,589C206,589 182,585 161,577C139,568 117,556 95,539l-79,95C47,659 81,678 118,691C154,704 195,710 242,710C302,710 355,696 400,668C445,639 480,598 505,544C530,489 542,424 542,348z" /><glyph unicode="Ø" horiz-adv-x="691" d="M658,347C658,272 646,207 621,152C596,97 560,56 513,27C466,-2 410,-17 345,-17C328,-17 312,-16 296,-14l-36,-120l-124,32l40,129C130,56 95,97 70,152C45,206 33,271 33,347C33,422 46,486 71,541C96,596 131,638 178,667C225,696 280,710 345,710C362,710 379,709 395,707l37,121l123,-33l-41,-128C561,639 596,598 621,543C646,488 658,423 658,347M205,347C205,251 218,185 243,148l132,440C363,589 353,590 345,590C298,590 263,571 240,533C217,494 205,432 205,347M486,347C486,444 473,511 448,546l-133,-441C328,104 338,103 345,103C393,103 429,122 452,161C475,199 486,261 486,347z" /><glyph unicode="Ǿ" horiz-adv-x="691" d="M658,347C658,272 646,207 621,152C596,97 560,56 513,27C466,-2 410,-17 345,-17C328,-17 312,-16 296,-14l-36,-120l-124,32l40,129C130,56 95,97 70,152C45,206 33,271 33,347C33,422 46,486 71,541C96,596 131,638 178,667C225,696 280,710 345,710C362,710 379,709 395,707l37,121l123,-33l-41,-128C561,639 596,598 621,543C646,488 658,423 658,347M205,347C205,251 218,185 243,148l132,440C363,589 353,590 345,590C298,590 263,571 240,533C217,494 205,432 205,347M486,347C486,444 473,511 448,546l-133,-441C328,104 338,103 345,103C393,103 429,122 452,161C475,199 486,261 486,347M424,990l59,-118l-240,-87l-40,80z" /><glyph unicode="Õ" horiz-adv-x="691" d="M658,347C658,272 646,207 621,152C596,97 560,56 513,27C466,-2 410,-17 345,-17C280,-17 225,-3 178,26C131,55 96,96 71,151C46,205 33,270 33,347C33,422 46,486 71,541C96,596 131,638 178,667C225,696 280,710 345,710C444,710 521,678 576,615C631,552 658,462 658,347M205,347C205,262 217,200 240,161C263,122 298,103 345,103C393,103 429,122 452,161C475,199 486,261 486,347C486,433 474,495 451,533C428,571 392,590 345,590C298,590 263,571 240,533C217,494 205,432 205,347M330,788C313,800 300,806 289,806C278,806 268,803 261,796C253,789 245,777 236,762l-79,38C170,835 188,863 211,885C233,907 258,918 286,918C301,918 315,916 326,911C337,906 349,899 362,890C371,884 379,880 385,877C390,874 396,873 402,873C413,873 422,877 430,884C437,891 445,902 454,917l79,-39C519,843 501,814 479,793C456,772 431,761 403,761C388,761 376,763 365,768C354,773 343,779 330,788z" /><glyph unicode="Ṍ" horiz-adv-x="691" d="M658,347C658,272 646,207 621,152C596,97 560,56 513,27C466,-2 410,-17 345,-17C280,-17 225,-3 178,26C131,55 96,96 71,151C46,205 33,270 33,347C33,422 46,486 71,541C96,596 131,638 178,667C225,696 280,710 345,710C444,710 521,678 576,615C631,552 658,462 658,347M205,347C205,262 217,200 240,161C263,122 298,103 345,103C393,103 429,122 452,161C475,199 486,261 486,347C486,433 474,495 451,533C428,571 392,590 345,590C298,590 263,571 240,533C217,494 205,432 205,347M330,783C313,795 300,801 289,801C278,801 268,798 261,791C253,784 245,772 236,757l-79,38C170,830 188,858 211,880C233,902 258,913 286,913C301,913 315,911 326,906C337,901 349,894 362,885C371,879 379,875 385,872C390,869 396,868 402,868C413,868 422,872 430,879C437,886 445,897 454,912l79,-39C519,838 501,809 479,788C456,767 431,756 403,756C388,756 376,758 365,763C354,768 343,774 330,783M426,1133l59,-118l-240,-87l-40,80z" /><glyph unicode="Ȭ" horiz-adv-x="691" d="M658,347C658,272 646,207 621,152C596,97 560,56 513,27C466,-2 410,-17 345,-17C280,-17 225,-3 178,26C131,55 96,96 71,151C46,205 33,270 33,347C33,422 46,486 71,541C96,596 131,638 178,667C225,696 280,710 345,710C444,710 521,678 576,615C631,552 658,462 658,347M205,347C205,262 217,200 240,161C263,122 298,103 345,103C393,103 429,122 452,161C475,199 486,261 486,347C486,433 474,495 451,533C428,571 392,590 345,590C298,590 263,571 240,533C217,494 205,432 205,347M330,783C313,795 300,801 289,801C278,801 268,798 261,791C253,784 245,772 236,757l-79,38C170,830 188,858 211,880C233,902 258,913 286,913C301,913 315,911 326,906C337,901 349,894 362,885C371,879 379,875 385,872C390,869 396,868 402,868C413,868 422,872 430,879C437,886 445,897 454,912l79,-39C519,838 501,809 479,788C456,767 431,756 403,756C388,756 376,758 365,763C354,768 343,774 330,783M497,943l-305,0l0,110l305,0z" /><glyph unicode="Œ" horiz-adv-x="905" d="M566,118l303,0l0,-118l-445,0C395,-11 364,-17 329,-17C269,-17 217,-3 173,26C128,55 94,96 70,151C45,206 33,271 33,347C33,422 45,486 70,541C94,596 128,638 173,667C218,696 270,710 329,710C365,710 398,704 428,693l441,0l-17,-117l-282,0C605,531 626,475 634,410l187,0l0,-115l-186,0C626,224 603,165 566,118M466,347C466,432 455,493 433,532C410,571 378,590 335,590C292,590 260,571 238,532C216,493 205,432 205,347C205,184 248,103 335,103C378,103 411,122 433,161C455,200 466,262 466,347z" /><glyph unicode="P" horiz-adv-x="600" d="M578,467C578,389 553,330 504,291C454,251 387,231 304,231l-75,0l0,-231l-164,0l0,693l224,0C380,693 451,674 502,636C553,598 578,542 578,467M409,467C409,540 368,576 287,576l-58,0l0,-227l61,0C329,349 358,358 379,377C399,395 409,425 409,467z" /><glyph unicode="Ṕ" horiz-adv-x="600" d="M578,467C578,389 553,330 504,291C454,251 387,231 304,231l-75,0l0,-231l-164,0l0,693l224,0C380,693 451,674 502,636C553,598 578,542 578,467M409,467C409,540 368,576 287,576l-58,0l0,-227l61,0C329,349 358,358 379,377C399,395 409,425 409,467M381,956l59,-118l-240,-87l-40,80z" /><glyph unicode="Ṗ" horiz-adv-x="600" d="M578,467C578,389 553,330 504,291C454,251 387,231 304,231l-75,0l0,-231l-164,0l0,693l224,0C380,693 451,674 502,636C553,598 578,542 578,467M409,467C409,540 368,576 287,576l-58,0l0,-227l61,0C329,349 358,358 379,377C399,395 409,425 409,467M393,847C393,821 384,800 367,783C349,766 326,757 299,757C272,757 249,766 232,783C215,800 206,821 206,847C206,873 215,895 232,912C249,929 272,937 299,937C326,937 349,929 367,912C384,895 393,873 393,847z" /><glyph unicode="Ƥ" horiz-adv-x="741" d="M720,467C720,389 695,330 646,291C596,251 529,231 446,231l-75,0l0,-231l-164,0l0,576l-29,0C163,576 152,572 144,565C136,558 132,547 132,534C132,517 138,495 149,469l-101,-45C35,444 24,464 16,483C8,502 4,523 4,544C4,590 21,626 54,653C87,680 131,693 187,693l244,0C522,693 593,674 644,636C695,598 720,542 720,467M551,467C551,540 510,576 429,576l-58,0l0,-227l61,0C471,349 500,358 521,377C541,395 551,425 551,467z" /><glyph unicode="Þ" horiz-adv-x="600" d="M578,356C578,276 553,216 504,175C454,134 387,114 304,114l-75,0l0,-114l-164,0l0,693l164,0l0,-108l60,0C380,585 451,566 502,527C553,488 578,431 578,356M409,356C409,394 399,422 379,441C358,459 328,468 287,468l-58,0l0,-235l61,0C329,233 358,243 379,262C399,281 409,312 409,356z" /><glyph unicode="Q" horiz-adv-x="690" d="M700,-18l-99,-129C563,-104 524,-71 484,-48C444,-25 394,-14 335,-14C273,-14 219,0 174,29C129,57 94,98 70,152C45,206 33,271 33,347C33,422 46,486 71,541C96,596 131,638 178,667C225,696 280,710 345,710C444,710 521,678 576,615C631,552 658,462 658,347C658,206 604,105 495,45C538,45 576,40 608,30C640,19 671,3 700,-18M345,103C393,103 429,122 452,161C475,199 486,261 486,347C486,433 474,495 451,533C428,571 392,590 345,590C298,590 263,571 240,533C217,494 205,432 205,347C205,262 217,200 240,161C263,122 298,103 345,103z" /><glyph unicode="Ɋ" horiz-adv-x="673" d="M786,-179C748,-208 701,-222 645,-222C583,-222 534,-206 498,-173C462,-141 444,-94 444,-31l0,67C407,1 361,-17 306,-17C252,-17 205,-3 164,25C123,52 91,93 68,146C45,199 33,262 33,335C33,412 45,479 69,536C92,593 125,636 167,666C208,695 256,710 309,710C366,710 415,691 456,653l6,40l146,0l0,-735C608,-62 613,-77 622,-87C631,-98 645,-103 662,-103C675,-103 687,-101 696,-98C705,-95 717,-89 732,-82M444,141l0,408C415,576 381,590 342,590C297,590 263,570 240,530C217,490 205,425 205,335C205,251 217,191 240,155C263,118 296,100 339,100C380,100 415,114 444,141z" /><glyph unicode="R" horiz-adv-x="617" d="M293,265l-64,0l0,-265l-164,0l0,693l227,0C387,693 458,676 506,641C553,606 577,553 577,482C577,437 566,400 545,371C524,341 490,316 444,295l176,-295l-185,0M229,378l69,0C335,378 362,386 381,403C399,420 408,446 408,482C408,515 398,540 379,555C359,570 329,578 288,578l-59,0z" /><glyph unicode="Ŕ" horiz-adv-x="617" d="M293,265l-64,0l0,-265l-164,0l0,693l227,0C387,693 458,676 506,641C553,606 577,553 577,482C577,437 566,400 545,371C524,341 490,316 444,295l176,-295l-185,0M229,378l69,0C335,378 362,386 381,403C399,420 408,446 408,482C408,515 398,540 379,555C359,570 329,578 288,578l-59,0M382,956l59,-118l-240,-87l-40,80z" /><glyph unicode="Ř" horiz-adv-x="617" d="M293,265l-64,0l0,-265l-164,0l0,693l227,0C387,693 458,676 506,641C553,606 577,553 577,482C577,437 566,400 545,371C524,341 490,316 444,295l176,-295l-185,0M229,378l69,0C335,378 362,386 381,403C399,420 408,446 408,482C408,515 398,540 379,555C359,570 329,578 288,578l-59,0M434,944l56,-65l-141,-129l-96,0l-142,129l57,65l133,-84z" /><glyph unicode="Ŗ" horiz-adv-x="617" d="M293,265l-64,0l0,-265l-164,0l0,693l227,0C387,693 458,676 506,641C553,606 577,553 577,482C577,437 566,400 545,371C524,341 490,316 444,295l176,-295l-185,0M229,378l69,0C335,378 362,386 381,403C399,420 408,446 408,482C408,515 398,540 379,555C359,570 329,578 288,578l-59,0M391,-145C391,-158 389,-170 385,-181C381,-193 374,-209 364,-229l-46,-96l-79,0l27,115C244,-193 233,-171 233,-145C233,-124 241,-105 256,-90C271,-75 289,-68 312,-68C335,-68 354,-75 369,-90C384,-105 391,-123 391,-145z" /><glyph unicode="Ȑ" horiz-adv-x="617" d="M293,265l-64,0l0,-265l-164,0l0,693l227,0C387,693 458,676 506,641C553,606 577,553 577,482C577,437 566,400 545,371C524,341 490,316 444,295l176,-295l-185,0M229,378l69,0C335,378 362,386 381,403C399,420 408,446 408,482C408,515 398,540 379,555C359,570 329,578 288,578l-59,0M170,986l97,-197l-81,-38l-122,182M346,986l88,-197l-83,-33l-113,180z" /><glyph unicode="Ṛ" horiz-adv-x="617" d="M293,265l-64,0l0,-265l-164,0l0,693l227,0C387,693 458,676 506,641C553,606 577,553 577,482C577,437 566,400 545,371C524,341 490,316 444,295l176,-295l-185,0M229,378l69,0C335,378 362,386 381,403C399,420 408,446 408,482C408,515 398,540 379,555C359,570 329,578 288,578l-59,0M217,-150C217,-124 226,-102 244,-85C261,-68 284,-60 311,-60C338,-60 361,-68 378,-85C395,-102 404,-124 404,-150C404,-176 395,-197 378,-214C361,-231 338,-240 311,-240C284,-240 261,-231 244,-214C226,-197 217,-176 217,-150z" /><glyph unicode="Ȓ" horiz-adv-x="617" d="M293,265l-64,0l0,-265l-164,0l0,693l227,0C387,693 458,676 506,641C553,606 577,553 577,482C577,437 566,400 545,371C524,341 490,316 444,295l176,-295l-185,0M229,378l69,0C335,378 362,386 381,403C399,420 408,446 408,482C408,515 398,540 379,555C359,570 329,578 288,578l-59,0M473,779l-87,-15C372,816 343,842 300,842C256,842 228,816 215,764l-87,15C132,830 149,871 179,904C209,936 249,952 300,952C351,952 391,936 422,903C452,870 469,829 473,779z" /><glyph unicode="Ɍ" horiz-adv-x="631" d="M449,0l-142,265l-64,0l0,-265l-164,0l0,265l-65,0l0,113l65,0l0,315l227,0C401,693 472,676 520,641C567,606 591,553 591,482C591,437 580,400 559,371C538,341 504,316 458,295l176,-295M312,378C349,378 376,386 395,403C413,420 422,446 422,482C422,515 412,540 393,555C373,570 343,578 302,578l-59,0l0,-200z" /><glyph unicode="Ɽ" horiz-adv-x="617" d="M228,0l0,-42C228,-62 233,-77 242,-87C251,-98 265,-103 282,-103C295,-103 307,-101 316,-98C325,-95 337,-89 352,-82l54,-97C368,-208 321,-222 265,-222C203,-222 154,-206 118,-173C82,-141 64,-94 64,-31l0,32l1,0l0,692l227,0C387,693 458,676 506,641C553,606 577,553 577,482C577,437 566,400 545,371C524,341 490,316 444,295l176,-295l-185,0l-142,265l-64,0l0,-265M229,578l0,-200l69,0C335,378 362,386 381,403C399,420 408,446 408,482C408,515 398,540 379,555C359,570 329,578 288,578z" /><glyph unicode="S" horiz-adv-x="572" d="M528,621l-76,-89C405,571 354,590 300,590C271,590 249,584 232,573C215,561 207,544 207,522C207,507 211,494 218,485C225,475 238,466 257,457C276,448 304,438 341,426C412,403 464,376 497,343C530,310 547,263 547,202C547,159 536,121 514,88C492,55 460,29 419,11C378,-8 329,-17 272,-17C215,-17 165,-8 122,10C78,28 40,52 9,82l83,91C119,150 146,133 175,122C203,111 234,105 267,105C301,105 328,113 348,128C367,143 377,163 377,190C377,207 373,222 366,234C359,245 346,256 328,265C310,274 284,284 250,295C173,318 119,347 87,381C54,415 38,458 38,510C38,550 49,585 70,616C91,646 121,669 159,686C197,702 240,710 288,710C340,710 385,703 424,688C462,673 497,651 528,621z" /><glyph unicode="Ś" horiz-adv-x="572" d="M528,621l-76,-89C405,571 354,590 300,590C271,590 249,584 232,573C215,561 207,544 207,522C207,507 211,494 218,485C225,475 238,466 257,457C276,448 304,438 341,426C412,403 464,376 497,343C530,310 547,263 547,202C547,159 536,121 514,88C492,55 460,29 419,11C378,-8 329,-17 272,-17C215,-17 165,-8 122,10C78,28 40,52 9,82l83,91C119,150 146,133 175,122C203,111 234,105 267,105C301,105 328,113 348,128C367,143 377,163 377,190C377,207 373,222 366,234C359,245 346,256 328,265C310,274 284,284 250,295C173,318 119,347 87,381C54,415 38,458 38,510C38,550 49,585 70,616C91,646 121,669 159,686C197,702 240,710 288,710C340,710 385,703 424,688C462,673 497,651 528,621M376,956l59,-118l-240,-87l-40,80z" /><glyph unicode="Ꞌ" horiz-adv-x="250" d="M67,334l-19,359l154,0l-19,-359z" /><glyph unicode="Š" horiz-adv-x="572" d="M528,621l-76,-89C405,571 354,590 300,590C271,590 249,584 232,573C215,561 207,544 207,522C207,507 211,494 218,485C225,475 238,466 257,457C276,448 304,438 341,426C412,403 464,376 497,343C530,310 547,263 547,202C547,159 536,121 514,88C492,55 460,29 419,11C378,-8 329,-17 272,-17C215,-17 165,-8 122,10C78,28 40,52 9,82l83,91C119,150 146,133 175,122C203,111 234,105 267,105C301,105 328,113 348,128C367,143 377,163 377,190C377,207 373,222 366,234C359,245 346,256 328,265C310,274 284,284 250,295C173,318 119,347 87,381C54,415 38,458 38,510C38,550 49,585 70,616C91,646 121,669 159,686C197,702 240,710 288,710C340,710 385,703 424,688C462,673 497,651 528,621M428,944l56,-65l-141,-129l-96,0l-142,129l57,65l133,-84z" /><glyph unicode="Ş" horiz-adv-x="572" d="M324,-14l0,-34C359,-52 386,-62 403,-79C420,-96 428,-119 428,-147C428,-181 415,-209 388,-230C361,-251 324,-262 279,-262C256,-262 235,-259 216,-253C197,-248 180,-241 167,-232l36,73C226,-170 247,-176 267,-176C298,-176 314,-166 314,-146C314,-134 307,-125 292,-120C277,-115 254,-112 222,-112l11,97C144,-8 69,25 9,82l83,91C119,150 146,133 175,122C203,111 234,105 267,105C301,105 328,113 348,128C367,143 377,163 377,190C377,207 373,222 366,234C359,245 346,256 328,265C310,274 284,284 250,295C173,318 119,347 87,381C54,415 38,458 38,510C38,550 49,585 70,616C91,646 121,669 159,686C197,702 240,710 288,710C340,710 385,703 424,688C462,673 497,651 528,621l-76,-89C405,571 354,590 300,590C271,590 249,584 232,573C215,561 207,544 207,522C207,507 211,494 218,485C225,475 238,466 257,457C276,448 304,438 341,426C412,403 464,376 497,343C530,310 547,263 547,202C547,144 527,96 488,57C449,18 394,-6 324,-14z" /><glyph unicode="Ŝ" horiz-adv-x="572" d="M528,621l-76,-89C405,571 354,590 300,590C271,590 249,584 232,573C215,561 207,544 207,522C207,507 211,494 218,485C225,475 238,466 257,457C276,448 304,438 341,426C412,403 464,376 497,343C530,310 547,263 547,202C547,159 536,121 514,88C492,55 460,29 419,11C378,-8 329,-17 272,-17C215,-17 165,-8 122,10C78,28 40,52 9,82l83,91C119,150 146,133 175,122C203,111 234,105 267,105C301,105 328,113 348,128C367,143 377,163 377,190C377,207 373,222 366,234C359,245 346,256 328,265C310,274 284,284 250,295C173,318 119,347 87,381C54,415 38,458 38,510C38,550 49,585 70,616C91,646 121,669 159,686C197,702 240,710 288,710C340,710 385,703 424,688C462,673 497,651 528,621M162,755l-57,65l142,129l96,0l141,-129l-56,-65l-133,84z" /><glyph unicode="Ș" horiz-adv-x="572" d="M528,621l-76,-89C405,571 354,590 300,590C271,590 249,584 232,573C215,561 207,544 207,522C207,507 211,494 218,485C225,475 238,466 257,457C276,448 304,438 341,426C412,403 464,376 497,343C530,310 547,263 547,202C547,159 536,121 514,88C492,55 460,29 419,11C378,-8 329,-17 272,-17C215,-17 165,-8 122,10C78,28 40,52 9,82l83,91C119,150 146,133 175,122C203,111 234,105 267,105C301,105 328,113 348,128C367,143 377,163 377,190C377,207 373,222 366,234C359,245 346,256 328,265C310,274 284,284 250,295C173,318 119,347 87,381C54,415 38,458 38,510C38,550 49,585 70,616C91,646 121,669 159,686C197,702 240,710 288,710C340,710 385,703 424,688C462,673 497,651 528,621M363,-145C363,-158 361,-170 357,-181C353,-193 346,-209 336,-229l-46,-96l-79,0l27,115C216,-193 205,-171 205,-145C205,-124 213,-105 228,-90C243,-75 261,-68 284,-68C307,-68 326,-75 341,-90C356,-105 363,-123 363,-145z" /><glyph unicode="Ṡ" horiz-adv-x="572" d="M528,621l-76,-89C405,571 354,590 300,590C271,590 249,584 232,573C215,561 207,544 207,522C207,507 211,494 218,485C225,475 238,466 257,457C276,448 304,438 341,426C412,403 464,376 497,343C530,310 547,263 547,202C547,159 536,121 514,88C492,55 460,29 419,11C378,-8 329,-17 272,-17C215,-17 165,-8 122,10C78,28 40,52 9,82l83,91C119,150 146,133 175,122C203,111 234,105 267,105C301,105 328,113 348,128C367,143 377,163 377,190C377,207 373,222 366,234C359,245 346,256 328,265C310,274 284,284 250,295C173,318 119,347 87,381C54,415 38,458 38,510C38,550 49,585 70,616C91,646 121,669 159,686C197,702 240,710 288,710C340,710 385,703 424,688C462,673 497,651 528,621M388,847C388,821 379,800 362,783C344,766 321,757 294,757C267,757 244,766 227,783C210,800 201,821 201,847C201,873 210,895 227,912C244,929 267,937 294,937C321,937 344,929 362,912C379,895 388,873 388,847z" /><glyph unicode="Ṣ" horiz-adv-x="572" d="M528,621l-76,-89C405,571 354,590 300,590C271,590 249,584 232,573C215,561 207,544 207,522C207,507 211,494 218,485C225,475 238,466 257,457C276,448 304,438 341,426C412,403 464,376 497,343C530,310 547,263 547,202C547,159 536,121 514,88C492,55 460,29 419,11C378,-8 329,-17 272,-17C215,-17 165,-8 122,10C78,28 40,52 9,82l83,91C119,150 146,133 175,122C203,111 234,105 267,105C301,105 328,113 348,128C367,143 377,163 377,190C377,207 373,222 366,234C359,245 346,256 328,265C310,274 284,284 250,295C173,318 119,347 87,381C54,415 38,458 38,510C38,550 49,585 70,616C91,646 121,669 159,686C197,702 240,710 288,710C340,710 385,703 424,688C462,673 497,651 528,621M189,-150C189,-124 198,-102 216,-85C233,-68 256,-60 283,-60C310,-60 333,-68 350,-85C367,-102 376,-124 376,-150C376,-176 367,-197 350,-214C333,-231 310,-240 283,-240C256,-240 233,-231 216,-214C198,-197 189,-176 189,-150z" /><glyph unicode="ẞ" horiz-adv-x="669" d="M596,639l0,-75l-147,-171C578,373 643,307 643,196C643,151 632,112 611,80C590,48 561,24 524,8C487,-9 447,-17 402,-17C349,-17 306,-8 271,10l48,108C337,110 358,106 381,106C408,106 430,114 447,129C464,144 472,168 472,199C472,234 459,261 433,280C406,299 364,310 307,314l0,87l138,166C402,582 360,590 319,590C288,590 266,582 251,566C236,549 229,524 229,489l0,-489l-164,0l0,485C65,556 86,612 128,651C169,690 230,710 309,710C364,710 413,704 458,692C502,679 548,662 596,639z" /><glyph unicode="Ə" horiz-adv-x="640" d="M606,352C606,232 580,141 528,78C475,15 403,-17 312,-17C215,-17 143,14 95,77C47,139 23,226 23,338C23,363 25,385 29,405l411,0C437,468 424,515 399,545C374,575 339,590 294,590C263,590 235,585 210,575C185,565 161,551 136,533l-74,89C97,651 134,673 174,688C214,703 259,710 309,710C404,710 477,680 529,619C580,558 606,469 606,352M441,292l-260,0C182,166 225,103 311,103C352,103 383,118 405,147C426,176 438,225 441,292z" /><glyph unicode="T" horiz-adv-x="540" d="M539,693l-16,-126l-171,0l0,-567l-164,0l0,567l-179,0l0,126z" /><glyph unicode="Ŧ" horiz-adv-x="540" d="M523,566l-171,0l0,-177l115,0l0,-92l-115,0l0,-298l-164,0l0,298l-115,0l0,92l115,0l0,177l-179,0l0,126l530,0z" /><glyph unicode="Ť" horiz-adv-x="540" d="M539,693l-16,-126l-171,0l0,-567l-164,0l0,567l-179,0l0,126M403,944l56,-65l-141,-129l-96,0l-142,129l57,65l133,-84z" /><glyph unicode="Ţ" horiz-adv-x="540" d="M457,-147C457,-181 443,-209 416,-230C389,-251 352,-262 307,-262C285,-262 264,-259 245,-253C225,-248 209,-241 196,-232l36,73C255,-170 275,-176 293,-176C326,-176 343,-166 343,-145C343,-134 336,-125 321,-120C306,-115 283,-112 251,-112l13,112l-76,0l0,567l-179,0l0,126l530,0l-16,-126l-171,0l0,-615C387,-52 413,-63 431,-80C448,-97 457,-120 457,-147z" /><glyph unicode="Ṱ" horiz-adv-x="540" d="M539,693l-16,-126l-171,0l0,-567l-164,0l0,567l-179,0l0,126M136,-265l-56,65l141,137l97,0l141,-137l-56,-65l-133,92z" /><glyph unicode="Ț" horiz-adv-x="540" d="M539,693l-16,-126l-171,0l0,-567l-164,0l0,567l-179,0l0,126M350,-145C350,-158 348,-170 344,-181C340,-193 333,-209 323,-229l-46,-96l-79,0l27,115C203,-193 192,-171 192,-145C192,-124 200,-105 215,-90C230,-75 248,-68 271,-68C294,-68 313,-75 328,-90C343,-105 350,-123 350,-145z" /><glyph unicode="Ⱦ" horiz-adv-x="540" d="M523,573l-88,0l-93,-200l0,-373l-144,0l0,64l-64,-138l-50,23l114,245l0,379l-189,0l0,120l421,0l30,65l50,-24l-19,-41l48,0M342,504l32,69l-32,0z" /><glyph unicode="Ṫ" horiz-adv-x="540" d="M539,693l-16,-126l-171,0l0,-567l-164,0l0,567l-179,0l0,126M363,847C363,821 354,800 337,783C319,766 296,757 269,757C242,757 219,766 202,783C185,800 176,821 176,847C176,873 185,895 202,912C219,929 242,937 269,937C296,937 319,929 337,912C354,895 363,873 363,847z" /><glyph unicode="Ṭ" horiz-adv-x="540" d="M539,693l-16,-126l-171,0l0,-567l-164,0l0,567l-179,0l0,126M176,-150C176,-124 185,-102 203,-85C220,-68 243,-60 270,-60C297,-60 320,-68 337,-85C354,-102 363,-124 363,-150C363,-176 354,-197 337,-214C320,-231 297,-240 270,-240C243,-240 220,-231 203,-214C185,-197 176,-176 176,-150z" /><glyph unicode="Ƭ" horiz-adv-x="595" d="M577,567l-170,0l0,-567l-164,0l0,567l-64,0C164,567 153,564 145,557C137,550 133,540 133,527C133,517 134,508 137,500C140,491 144,481 149,470l-108,-46C16,465 4,505 4,543C4,590 21,626 55,653C88,680 135,693 194,693l400,0z" /><glyph unicode="Ṯ" horiz-adv-x="540" d="M539,693l-16,-126l-171,0l0,-567l-164,0l0,567l-179,0l0,126M422,-191l-305,0l0,110l305,0z" /><glyph unicode="Ƽ" horiz-adv-x="543" d="M461,580l-251,0l0,-150C243,446 278,454 316,454C353,454 387,445 416,428C445,410 468,384 485,350C502,316 510,275 510,228C510,179 499,136 477,99C455,62 424,34 384,14C343,-7 296,-17 241,-17C193,-17 150,-8 112,11C74,29 41,54 13,85l88,82C138,124 183,102 236,102C271,102 299,113 319,134C338,155 348,187 348,228C348,307 316,346 253,346C239,346 225,344 212,341C199,337 183,331 166,322l-108,0l0,371l421,0z" /><glyph unicode="Ƅ" horiz-adv-x="615" d="M600,235C600,157 575,98 526,59C477,20 411,0 328,0l-242,0l0,492l-75,50C51,583 85,634 112,693l138,0l0,-236l74,0C412,457 480,439 528,402C576,365 600,309 600,235M428,233C428,270 418,298 399,316C380,334 350,343 310,343l-60,0l0,-224l64,0C390,119 428,157 428,233z" /><glyph unicode="Ƨ" horiz-adv-x="563" d="M537,514C537,461 520,419 487,387C453,354 398,326 322,302C273,287 240,272 222,255C204,238 195,216 195,190C195,163 204,142 223,128C241,113 266,106 298,106C359,106 416,128 471,173l82,-91C521,52 483,28 438,10C393,-8 343,-17 287,-17C234,-17 188,-8 149,11C109,29 78,54 57,87C35,120 24,157 24,199C24,257 41,303 75,336C109,369 161,396 230,418C267,430 295,441 314,451C333,460 347,471 355,482C363,493 367,507 367,523C367,545 359,562 344,573C329,584 307,590 280,590C250,590 223,585 198,576C173,567 148,552 123,533l-77,88C113,680 195,710 292,710C340,710 383,702 420,686C457,670 486,647 507,618C527,588 537,553 537,514z" /><glyph unicode="Ʈ" horiz-adv-x="542" d="M476,-82l54,-97C492,-208 445,-222 389,-222C327,-222 278,-206 242,-173C206,-141 188,-94 188,-31l0,598l-179,0l0,126l530,0l-16,-126l-171,0l0,-609C352,-62 357,-77 366,-87C375,-98 389,-103 406,-103C419,-103 431,-101 440,-98C449,-95 461,-89 476,-82z" /><glyph unicode="U" horiz-adv-x="651" d="M596,230C596,183 586,140 566,103C545,66 515,36 474,15C433,-6 384,-17 325,-17C237,-17 170,5 124,50C78,95 55,155 55,230l0,463l164,0l0,-456C219,192 228,159 245,138C262,116 288,105 325,105C362,105 390,116 407,138C424,159 432,192 432,237l0,456l164,0z" /><glyph unicode="Ú" horiz-adv-x="651" d="M596,230C596,183 586,140 566,103C545,66 515,36 474,15C433,-6 384,-17 325,-17C237,-17 170,5 124,50C78,95 55,155 55,230l0,463l164,0l0,-456C219,192 228,159 245,138C262,116 288,105 325,105C362,105 390,116 407,138C424,159 432,192 432,237l0,456l164,0M406,956l59,-118l-240,-87l-40,80z" /><glyph unicode="Ʉ" horiz-adv-x="681" d="M668,500l-57,0l0,-270C611,183 601,140 581,103C560,66 530,36 489,15C448,-6 399,-17 340,-17C252,-17 185,5 139,50C93,95 70,155 70,230l0,270l-57,0l0,92l57,0l0,101l164,0l0,-101l213,0l0,101l164,0l0,-101l57,0M447,500l-213,0l0,-263C234,192 243,159 260,138C277,116 303,105 340,105C377,105 405,116 422,138C439,159 447,192 447,237z" /><glyph unicode="Ŭ" horiz-adv-x="651" d="M596,230C596,183 586,140 566,103C545,66 515,36 474,15C433,-6 384,-17 325,-17C237,-17 170,5 124,50C78,95 55,155 55,230l0,463l164,0l0,-456C219,192 228,159 245,138C262,116 288,105 325,105C362,105 390,116 407,138C424,159 432,192 432,237l0,456l164,0M152,913l87,15C246,907 256,891 270,879C284,866 302,860 324,860C346,860 364,866 378,879C392,891 403,907 410,928l87,-15C493,868 476,829 445,798C414,767 374,751 324,751C274,751 234,767 204,798C173,829 156,868 152,913z" /><glyph unicode="Ǔ" horiz-adv-x="651" d="M596,230C596,183 586,140 566,103C545,66 515,36 474,15C433,-6 384,-17 325,-17C237,-17 170,5 124,50C78,95 55,155 55,230l0,463l164,0l0,-456C219,192 228,159 245,138C262,116 288,105 325,105C362,105 390,116 407,138C424,159 432,192 432,237l0,456l164,0M458,944l56,-65l-141,-129l-96,0l-142,129l57,65l133,-84z" /><glyph unicode="Û" horiz-adv-x="651" d="M596,230C596,183 586,140 566,103C545,66 515,36 474,15C433,-6 384,-17 325,-17C237,-17 170,5 124,50C78,95 55,155 55,230l0,463l164,0l0,-456C219,192 228,159 245,138C262,116 288,105 325,105C362,105 390,116 407,138C424,159 432,192 432,237l0,456l164,0M192,755l-57,65l142,129l96,0l141,-129l-56,-65l-133,84z" /><glyph unicode="Ȕ" horiz-adv-x="651" d="M596,230C596,183 586,140 566,103C545,66 515,36 474,15C433,-6 384,-17 325,-17C237,-17 170,5 124,50C78,95 55,155 55,230l0,463l164,0l0,-456C219,192 228,159 245,138C262,116 288,105 325,105C362,105 390,116 407,138C424,159 432,192 432,237l0,456l164,0M194,986l97,-197l-81,-38l-122,182M370,986l88,-197l-83,-33l-113,180z" /><glyph unicode="Ü" horiz-adv-x="651" d="M596,230C596,183 586,140 566,103C545,66 515,36 474,15C433,-6 384,-17 325,-17C237,-17 170,5 124,50C78,95 55,155 55,230l0,463l164,0l0,-456C219,192 228,159 245,138C262,116 288,105 325,105C362,105 390,116 407,138C424,159 432,192 432,237l0,456l164,0M289,846C289,824 281,805 266,790C250,775 231,767 208,767C185,767 166,775 151,790C135,805 127,824 127,846C127,868 135,887 151,902C166,917 185,925 208,925C231,925 250,917 266,902C281,887 289,868 289,846M520,846C520,824 512,805 497,790C482,775 462,767 439,767C417,767 398,775 383,790C367,805 359,824 359,846C359,868 367,887 383,902C398,917 417,925 439,925C462,925 482,917 497,902C512,887 520,868 520,846z" /><glyph unicode="Ǘ" horiz-adv-x="651" d="M596,230C596,183 586,140 566,103C545,66 515,36 474,15C433,-6 384,-17 325,-17C237,-17 170,5 124,50C78,95 55,155 55,230l0,463l164,0l0,-456C219,192 228,159 245,138C262,116 288,105 325,105C362,105 390,116 407,138C424,159 432,192 432,237l0,456l164,0M397,1097l86,-84l-158,-141l-60,54M284,827C284,805 276,786 260,771C244,756 225,748 203,748C180,748 161,756 146,771C130,786 122,805 122,827C122,849 130,868 146,883C161,898 180,906 203,906C225,906 244,898 260,883C276,868 284,849 284,827M528,827C528,805 520,786 505,771C489,756 470,748 447,748C424,748 405,756 390,771C374,786 366,805 366,827C366,849 374,868 390,883C405,898 424,906 447,906C470,906 489,898 505,883C520,868 528,849 528,827z" /><glyph unicode="Ǚ" horiz-adv-x="651" d="M596,230C596,183 586,140 566,103C545,66 515,36 474,15C433,-6 384,-17 325,-17C237,-17 170,5 124,50C78,95 55,155 55,230l0,463l164,0l0,-456C219,192 228,159 245,138C262,116 288,105 325,105C362,105 390,116 407,138C424,159 432,192 432,237l0,456l164,0M456,1100l56,-65l-141,-129l-96,0l-142,129l57,65l133,-84M283,827C283,805 275,786 260,771C244,756 225,748 202,748C179,748 160,756 145,771C129,786 121,805 121,827C121,849 129,868 145,883C160,898 179,906 202,906C225,906 244,898 260,883C275,868 283,849 283,827M527,827C527,805 519,786 504,771C488,756 469,748 446,748C423,748 404,756 389,771C374,786 366,805 366,827C366,849 374,868 389,883C404,898 423,906 446,906C469,906 488,898 504,883C519,868 527,849 527,827z" /><glyph unicode="Ǜ" horiz-adv-x="651" d="M596,230C596,183 586,140 566,103C545,66 515,36 474,15C433,-6 384,-17 325,-17C237,-17 170,5 124,50C78,95 55,155 55,230l0,463l164,0l0,-456C219,192 228,159 245,138C262,116 288,105 325,105C362,105 390,116 407,138C424,159 432,192 432,237l0,456l164,0M256,1097l131,-171l-59,-54l-158,141M284,827C284,805 276,786 261,771C245,756 226,748 203,748C180,748 161,756 146,771C130,786 122,805 122,827C122,849 130,868 146,883C161,898 180,906 203,906C226,906 245,898 261,883C276,868 284,849 284,827M528,827C528,805 520,786 505,771C489,756 470,748 447,748C424,748 405,756 390,771C374,786 366,805 366,827C366,849 374,868 390,883C405,898 424,906 447,906C470,906 489,898 505,883C520,868 528,849 528,827z" /><glyph unicode="Ǖ" horiz-adv-x="651" d="M596,230C596,183 586,140 566,103C545,66 515,36 474,15C433,-6 384,-17 325,-17C237,-17 170,5 124,50C78,95 55,155 55,230l0,463l164,0l0,-456C219,192 228,159 245,138C262,116 288,105 325,105C362,105 390,116 407,138C424,159 432,192 432,237l0,456l164,0M290,824C290,802 282,783 267,768C251,753 232,745 209,745C186,745 167,753 152,768C136,783 128,802 128,824C128,846 136,865 152,880C167,895 186,903 209,903C232,903 251,895 267,880C282,865 290,846 290,824M521,824C521,802 513,783 498,768C483,753 463,745 440,745C418,745 399,753 384,768C368,783 360,802 360,824C360,846 368,865 384,880C399,895 418,903 440,903C463,903 483,895 498,880C513,865 521,846 521,824M480,940l-305,0l0,110l305,0z" /><glyph unicode="Ụ" horiz-adv-x="651" d="M596,230C596,183 586,140 566,103C545,66 515,36 474,15C433,-6 384,-17 325,-17C237,-17 170,5 124,50C78,95 55,155 55,230l0,463l164,0l0,-456C219,192 228,159 245,138C262,116 288,105 325,105C362,105 390,116 407,138C424,159 432,192 432,237l0,456l164,0M231,-150C231,-124 240,-102 258,-85C275,-68 298,-60 325,-60C352,-60 375,-68 392,-85C409,-102 418,-124 418,-150C418,-176 409,-197 392,-214C375,-231 352,-240 325,-240C298,-240 275,-231 258,-214C240,-197 231,-176 231,-150z" /><glyph unicode="Ù" horiz-adv-x="651" d="M596,230C596,183 586,140 566,103C545,66 515,36 474,15C433,-6 384,-17 325,-17C237,-17 170,5 124,50C78,95 55,155 55,230l0,463l164,0l0,-456C219,192 228,159 245,138C262,116 288,105 325,105C362,105 390,116 407,138C424,159 432,192 432,237l0,456l164,0M240,956l221,-125l-40,-80l-240,87z" /><glyph unicode="Ủ" horiz-adv-x="651" d="M596,230C596,183 586,140 566,103C545,66 515,36 474,15C433,-6 384,-17 325,-17C237,-17 170,5 124,50C78,95 55,155 55,230l0,463l164,0l0,-456C219,192 228,159 245,138C262,116 288,105 325,105C362,105 390,116 407,138C424,159 432,192 432,237l0,456l164,0M277,853C302,854 321,858 332,864C343,869 348,878 348,891C348,901 345,909 338,914C331,919 321,922 308,922C290,922 270,918 248,909l-26,66C252,992 288,1001 331,1001C370,1001 401,992 423,973C444,954 455,930 455,899C455,848 427,817 371,806l0,-42l-94,0z" /><glyph unicode="Ư" horiz-adv-x="725" d="M745,685C745,644 732,612 706,591C679,570 643,559 596,558l0,-328C596,183 586,140 566,103C545,66 515,36 474,15C433,-6 384,-17 325,-17C237,-17 170,5 124,50C78,95 55,155 55,230l0,463l164,0l0,-456C219,192 228,159 245,138C262,116 288,105 325,105C362,105 390,116 407,138C424,159 432,192 432,237l0,456l164,0l0,-58C611,638 621,644 628,653C634,662 637,674 637,690C637,703 636,715 634,725C632,734 629,745 624,758l102,15C739,749 745,720 745,685z" /><glyph unicode="Ứ" horiz-adv-x="725" d="M465,838l-240,-87l-40,80l221,125M745,685C745,644 732,612 706,591C679,570 643,559 596,558l0,-328C596,183 586,140 566,103C545,66 515,36 474,15C433,-6 384,-17 325,-17C237,-17 170,5 124,50C78,95 55,155 55,230l0,463l164,0l0,-456C219,192 228,159 245,138C262,116 288,105 325,105C362,105 390,116 407,138C424,159 432,192 432,237l0,456l164,0l0,-58C611,638 621,644 628,653C634,662 637,674 637,690C637,703 636,715 634,725C632,734 629,745 624,758l102,15C739,749 745,720 745,685z" /><glyph unicode="Ự" horiz-adv-x="725" d="M745,685C745,644 732,612 706,591C679,570 643,559 596,558l0,-328C596,183 586,140 566,103C545,66 515,36 474,15C433,-6 384,-17 325,-17C237,-17 170,5 124,50C78,95 55,155 55,230l0,463l164,0l0,-456C219,192 228,159 245,138C262,116 288,105 325,105C362,105 390,116 407,138C424,159 432,192 432,237l0,456l164,0l0,-58C611,638 621,644 628,653C634,662 637,674 637,690C637,703 636,715 634,725C632,734 629,745 624,758l102,15C739,749 745,720 745,685M418,-150C418,-176 409,-197 392,-214C375,-231 352,-240 325,-240C298,-240 275,-231 258,-214C240,-197 231,-176 231,-150C231,-124 240,-102 258,-85C275,-68 298,-60 325,-60C352,-60 375,-68 392,-85C409,-102 418,-124 418,-150z" /><glyph unicode="Ừ" horiz-adv-x="725" d="M461,831l-40,-80l-240,87l59,118M745,685C745,644 732,612 706,591C679,570 643,559 596,558l0,-328C596,183 586,140 566,103C545,66 515,36 474,15C433,-6 384,-17 325,-17C237,-17 170,5 124,50C78,95 55,155 55,230l0,463l164,0l0,-456C219,192 228,159 245,138C262,116 288,105 325,105C362,105 390,116 407,138C424,159 432,192 432,237l0,456l164,0l0,-58C611,638 621,644 628,653C634,662 637,674 637,690C637,703 636,715 634,725C632,734 629,745 624,758l102,15C739,749 745,720 745,685z" /><glyph unicode="Ử" horiz-adv-x="725" d="M248,909l-26,66C253,992 289,1001 331,1001C370,1001 401,992 423,973C444,954 455,930 455,899C455,848 427,817 371,806l0,-42l-94,0l0,89C302,854 321,858 332,864C343,869 348,878 348,891C348,901 345,909 338,914C331,919 321,922 308,922C290,922 270,918 248,909M745,685C745,644 732,612 706,591C679,570 643,559 596,558l0,-328C596,183 586,140 566,103C545,66 515,36 474,15C433,-6 384,-17 325,-17C237,-17 170,5 124,50C78,95 55,155 55,230l0,463l164,0l0,-456C219,192 228,159 245,138C262,116 288,105 325,105C362,105 390,116 407,138C424,159 432,192 432,237l0,456l164,0l0,-58C611,638 621,644 628,653C634,662 637,674 637,690C637,703 636,715 634,725C632,734 629,745 624,758l102,15C739,749 745,720 745,685z" /><glyph unicode="Ữ" horiz-adv-x="725" d="M216,762l-79,38C150,835 168,863 191,885C213,907 238,918 266,918C281,918 295,916 306,911C317,906 329,899 342,890C351,884 359,880 365,877C370,874 376,873 382,873C393,873 402,877 410,884C417,891 425,902 434,917l79,-39C499,843 481,814 459,793C436,772 411,761 383,761C368,761 356,763 345,768C334,773 323,779 310,788C293,800 280,806 269,806C258,806 248,803 241,796C233,789 225,777 216,762M745,685C745,644 732,612 706,591C679,570 643,559 596,558l0,-328C596,183 586,140 566,103C545,66 515,36 474,15C433,-6 384,-17 325,-17C237,-17 170,5 124,50C78,95 55,155 55,230l0,463l164,0l0,-456C219,192 228,159 245,138C262,116 288,105 325,105C362,105 390,116 407,138C424,159 432,192 432,237l0,456l164,0l0,-58C611,638 621,644 628,653C634,662 637,674 637,690C637,703 636,715 634,725C632,734 629,745 624,758l102,15C739,749 745,720 745,685z" /><glyph unicode="Ű" horiz-adv-x="651" d="M596,230C596,183 586,140 566,103C545,66 515,36 474,15C433,-6 384,-17 325,-17C237,-17 170,5 124,50C78,95 55,155 55,230l0,463l164,0l0,-456C219,192 228,159 245,138C262,116 288,105 325,105C362,105 390,116 407,138C424,159 432,192 432,237l0,456l164,0M280,986l108,-50l-113,-180l-83,33M456,986l106,-53l-121,-182l-82,38z" /><glyph unicode="Ȗ" horiz-adv-x="651" d="M596,230C596,183 586,140 566,103C545,66 515,36 474,15C433,-6 384,-17 325,-17C237,-17 170,5 124,50C78,95 55,155 55,230l0,463l164,0l0,-456C219,192 228,159 245,138C262,116 288,105 325,105C362,105 390,116 407,138C424,159 432,192 432,237l0,456l164,0M497,779l-87,-15C396,816 367,842 324,842C280,842 252,816 239,764l-87,15C156,830 173,871 203,904C233,936 273,952 324,952C375,952 415,936 446,903C476,870 493,829 497,779z" /><glyph unicode="Ū" horiz-adv-x="651" d="M596,230C596,183 586,140 566,103C545,66 515,36 474,15C433,-6 384,-17 325,-17C237,-17 170,5 124,50C78,95 55,155 55,230l0,463l164,0l0,-456C219,192 228,159 245,138C262,116 288,105 325,105C362,105 390,116 407,138C424,159 432,192 432,237l0,456l164,0M477,781l-305,0l0,110l305,0z" /><glyph unicode="Ų" horiz-adv-x="651" d="M596,693l0,-463C596,175 582,127 555,86C528,45 488,16 436,-1C359,-30 320,-64 320,-102C320,-133 338,-148 373,-148C389,-148 409,-145 434,-140l-11,-98C400,-243 377,-246 353,-246C310,-246 274,-235 247,-214C220,-193 206,-164 206,-129C206,-80 234,-43 290,-16C213,-9 155,16 115,60C75,103 55,160 55,230l0,463l164,0l0,-456C219,192 228,159 245,138C262,116 288,105 325,105C362,105 390,116 407,138C424,159 432,192 432,237l0,456z" /><glyph unicode="Ʊ" horiz-adv-x="691" d="M33,302C33,367 45,422 68,466C91,509 123,546 165,576l-110,0l0,117l235,0l0,-111C260,549 238,511 225,470C212,429 205,373 205,302C205,237 217,187 240,154C263,120 298,103 345,103C391,103 426,120 450,154C474,187 486,237 486,302C486,371 479,427 465,468C451,509 430,547 401,582l0,111l236,0l0,-117l-111,0C568,548 601,512 624,468C647,424 658,369 658,302C658,242 645,188 620,139C595,90 558,52 511,25C464,-3 408,-17 345,-17C281,-17 226,-3 179,25C132,52 96,90 71,138C46,186 33,241 33,302z" /><glyph unicode="Ů" horiz-adv-x="651" d="M596,230C596,183 586,140 566,103C545,66 515,36 474,15C433,-6 384,-17 325,-17C237,-17 170,5 124,50C78,95 55,155 55,230l0,463l164,0l0,-456C219,192 228,159 245,138C262,116 288,105 325,105C362,105 390,116 407,138C424,159 432,192 432,237l0,456l164,0M464,862C464,825 451,794 426,769C401,744 367,731 325,731C283,731 249,744 224,769C199,794 186,825 186,862C186,899 199,930 224,955C249,980 283,993 325,993C367,993 401,980 426,955C451,930 464,899 464,862M280,862C280,846 284,834 292,825C300,816 311,812 325,812C338,812 349,816 358,825C366,834 370,846 370,862C370,878 366,890 358,899C350,908 339,912 325,912C311,912 300,908 292,899C284,890 280,878 280,862z" /><glyph unicode="Ũ" horiz-adv-x="651" d="M596,230C596,183 586,140 566,103C545,66 515,36 474,15C433,-6 384,-17 325,-17C237,-17 170,5 124,50C78,95 55,155 55,230l0,463l164,0l0,-456C219,192 228,159 245,138C262,116 288,105 325,105C362,105 390,116 407,138C424,159 432,192 432,237l0,456l164,0M310,788C293,800 280,806 269,806C258,806 248,803 241,796C233,789 225,777 216,762l-79,38C150,835 168,863 191,885C213,907 238,918 266,918C281,918 295,916 306,911C317,906 329,899 342,890C351,884 359,880 365,877C370,874 376,873 382,873C393,873 402,877 410,884C417,891 425,902 434,917l79,-39C499,843 481,814 459,793C436,772 411,761 383,761C368,761 356,763 345,768C334,773 323,779 310,788z" /><glyph unicode="Ṹ" horiz-adv-x="651" d="M596,230C596,183 586,140 566,103C545,66 515,36 474,15C433,-6 384,-17 325,-17C237,-17 170,5 124,50C78,95 55,155 55,230l0,463l164,0l0,-456C219,192 228,159 245,138C262,116 288,105 325,105C362,105 390,116 407,138C424,159 432,192 432,237l0,456l164,0M310,783C293,795 280,801 269,801C258,801 248,798 241,791C233,784 225,772 216,757l-79,38C150,830 168,858 191,880C213,902 238,913 266,913C281,913 295,911 306,906C317,901 329,894 342,885C351,879 359,875 365,872C370,869 376,868 382,868C393,868 402,872 410,879C417,886 425,897 434,912l79,-39C499,838 481,809 459,788C436,767 411,756 383,756C368,756 356,758 345,763C334,768 323,774 310,783M406,1133l59,-118l-240,-87l-40,80z" /><glyph unicode="V" horiz-adv-x="570" d="M584,693l-193,-693l-204,0l-200,693l173,0l132,-565l124,565z" /><glyph unicode="Ʋ" horiz-adv-x="651" d="M596,544l0,-252C596,228 584,173 560,127C536,80 502,45 458,20C414,-5 363,-17 305,-17C254,-17 209,-7 172,13C134,32 105,60 85,95C65,130 55,169 55,214l0,479l164,0l0,-478C219,180 227,153 242,134C257,115 280,105 309,105C348,105 378,120 400,150C421,180 432,227 432,290l0,262C432,566 430,576 425,582C420,588 412,591 401,591C392,591 383,589 374,586l-26,107C376,704 408,710 444,710C545,710 596,655 596,544z" /><glyph unicode="Ʌ" horiz-adv-x="590" d="M395,693l209,-693l-174,0l-136,574l-137,-574l-170,0l209,693z" /><glyph unicode="W" horiz-adv-x="847" d="M837,693l-116,-693l-213,0l-86,529l-91,-529l-208,0l-114,693l164,0l69,-569l96,569l172,0l90,-569l81,569z" /><glyph unicode="Ẃ" horiz-adv-x="847" d="M837,693l-116,-693l-213,0l-86,529l-91,-529l-208,0l-114,693l164,0l69,-569l96,569l172,0l90,-569l81,569M506,956l59,-118l-240,-87l-40,80z" /><glyph unicode="Ŵ" horiz-adv-x="847" d="M837,693l-116,-693l-213,0l-86,529l-91,-529l-208,0l-114,693l164,0l69,-569l96,569l172,0l90,-569l81,569M292,755l-57,65l142,129l96,0l141,-129l-56,-65l-133,84z" /><glyph unicode="Ẅ" horiz-adv-x="847" d="M837,693l-116,-693l-213,0l-86,529l-91,-529l-208,0l-114,693l164,0l69,-569l96,569l172,0l90,-569l81,569M389,846C389,824 381,805 366,790C350,775 331,767 308,767C285,767 266,775 251,790C235,805 227,824 227,846C227,868 235,887 251,902C266,917 285,925 308,925C331,925 350,917 366,902C381,887 389,868 389,846M620,846C620,824 612,805 597,790C582,775 562,767 539,767C517,767 498,775 483,790C467,805 459,824 459,846C459,868 467,887 483,902C498,917 517,925 539,925C562,925 582,917 597,902C612,887 620,868 620,846z" /><glyph unicode="Ẁ" horiz-adv-x="847" d="M837,693l-116,-693l-213,0l-86,529l-91,-529l-208,0l-114,693l164,0l69,-569l96,569l172,0l90,-569l81,569M340,956l221,-125l-40,-80l-240,87z" /><glyph unicode="Ⱳ" horiz-adv-x="909" d="M123,0l208,0l91,529l86,-529l209,0l79,537C799,558 804,573 813,582C821,591 833,595 849,595C860,595 870,594 877,591C884,588 893,584 902,579l46,93C931,685 912,694 893,701C874,707 851,710 825,710C776,710 737,697 708,670C679,643 661,599 654,538l-54,-414l-90,569l-172,0l-96,-569l-69,569l-164,0z" /><glyph unicode="Ƿ" horiz-adv-x="600" d="M578,517C578,465 566,421 543,386C520,350 489,320 450,297C411,274 362,251 304,230l-75,-28l0,-202l-164,0l0,693l164,0l0,-43C269,690 322,710 387,710C422,710 454,702 483,687C512,671 536,648 553,619C570,590 578,556 578,517M409,508C409,535 402,556 388,571C374,585 354,592 329,592C292,592 258,579 229,553l0,-236l41,17C317,355 352,379 375,408C398,436 409,469 409,508z" /><glyph unicode="X" horiz-adv-x="581" d="M385,374l200,-374l-179,0l-119,264l-117,-264l-174,0l194,368l-179,325l178,0l100,-222l105,222l174,0z" /><glyph unicode="Y" horiz-adv-x="594" d="M601,693l-222,-433l0,-260l-164,0l0,259l-222,434l179,0l128,-305l128,305z" /><glyph unicode="Ý" horiz-adv-x="594" d="M601,693l-222,-433l0,-260l-164,0l0,259l-222,434l179,0l128,-305l128,305M378,956l59,-118l-240,-87l-40,80z" /><glyph unicode="Ŷ" horiz-adv-x="594" d="M601,693l-222,-433l0,-260l-164,0l0,259l-222,434l179,0l128,-305l128,305M164,755l-57,65l142,129l96,0l141,-129l-56,-65l-133,84z" /><glyph unicode="Ÿ" horiz-adv-x="594" d="M601,693l-222,-433l0,-260l-164,0l0,259l-222,434l179,0l128,-305l128,305M261,846C261,824 253,805 238,790C222,775 203,767 180,767C157,767 138,775 123,790C107,805 99,824 99,846C99,868 107,887 123,902C138,917 157,925 180,925C203,925 222,917 238,902C253,887 261,868 261,846M492,846C492,824 484,805 469,790C454,775 434,767 411,767C389,767 370,775 355,790C339,805 331,824 331,846C331,868 339,887 355,902C370,917 389,925 411,925C434,925 454,917 469,902C484,887 492,868 492,846z" /><glyph unicode="Ỵ" horiz-adv-x="594" d="M601,693l-222,-433l0,-260l-164,0l0,259l-222,434l179,0l128,-305l128,305M203,-150C203,-124 212,-102 230,-85C247,-68 270,-60 297,-60C324,-60 347,-68 364,-85C381,-102 390,-124 390,-150C390,-176 381,-197 364,-214C347,-231 324,-240 297,-240C270,-240 247,-231 230,-214C212,-197 203,-176 203,-150z" /><glyph unicode="Ỳ" horiz-adv-x="594" d="M601,693l-222,-433l0,-260l-164,0l0,259l-222,434l179,0l128,-305l128,305M212,956l221,-125l-40,-80l-240,87z" /><glyph unicode="Ƴ" horiz-adv-x="633" d="M215,259l-222,434l179,0l128,-305l70,178C389,618 413,655 441,677C468,699 505,710 552,710C596,710 636,698 672,673l-45,-94C608,590 590,595 573,595C558,595 545,591 536,583C526,575 516,561 507,540l-128,-280l0,-260l-164,0z" /><glyph unicode="Ỷ" horiz-adv-x="594" d="M601,693l-222,-433l0,-260l-164,0l0,259l-222,434l179,0l128,-305l128,305M249,853C274,854 293,858 304,864C315,869 320,878 320,891C320,901 317,909 310,914C303,919 293,922 280,922C262,922 242,918 220,909l-26,66C224,992 260,1001 303,1001C342,1001 373,992 395,973C416,954 427,930 427,899C427,848 399,817 343,806l0,-42l-94,0z" /><glyph unicode="Ȳ" horiz-adv-x="594" d="M601,693l-222,-433l0,-260l-164,0l0,259l-222,434l179,0l128,-305l128,305M449,781l-305,0l0,110l305,0z" /><glyph unicode="Ʀ" horiz-adv-x="617" d="M293,150l-64,0l0,-150l-164,0l0,693l164,0l0,-114l63,0C387,579 458,562 506,527C553,492 577,439 577,368C577,323 566,285 545,256C524,227 490,201 444,180l176,-295l-185,0M229,264l69,0C335,264 362,272 381,289C399,306 408,332 408,368C408,401 398,425 379,440C359,455 329,463 288,463l-59,0z" /><glyph unicode="Ɏ" horiz-adv-x="594" d="M602,693l-40,-78l40,0l0,-92l-87,0l-135,-263l0,-260l-165,0l0,259l-135,264l-86,0l0,92l39,0l-40,78l174,0l33,-78l202,0l33,78M300,375l63,148l-125,0z" /><glyph unicode="Ỹ" horiz-adv-x="594" d="M601,693l-222,-433l0,-260l-164,0l0,259l-222,434l179,0l128,-305l128,305M282,788C265,800 252,806 241,806C230,806 220,803 213,796C205,789 197,777 188,762l-79,38C122,835 140,863 163,885C185,907 210,918 238,918C253,918 267,916 278,911C289,906 301,899 314,890C323,884 331,880 337,877C342,874 348,873 354,873C365,873 374,877 382,884C389,891 397,902 406,917l79,-39C471,843 453,814 431,793C408,772 383,761 355,761C340,761 328,763 317,768C306,773 295,779 282,788z" /><glyph unicode="Z" horiz-adv-x="544" d="M512,693l0,-124l-301,-438l306,0l-16,-131l-483,0l0,123l307,443l-276,0l0,127z" /><glyph unicode="Ź" horiz-adv-x="544" d="M512,693l0,-124l-301,-438l306,0l-16,-131l-483,0l0,123l307,443l-276,0l0,127M357,956l59,-118l-240,-87l-40,80z" /><glyph unicode="Ž" horiz-adv-x="544" d="M512,693l0,-124l-301,-438l306,0l-16,-131l-483,0l0,123l307,443l-276,0l0,127M409,944l56,-65l-141,-129l-96,0l-142,129l57,65l133,-84z" /><glyph unicode="Ż" horiz-adv-x="544" d="M512,693l0,-124l-301,-438l306,0l-16,-131l-483,0l0,123l307,443l-276,0l0,127M369,847C369,821 360,800 343,783C325,766 302,757 275,757C248,757 225,766 208,783C191,800 182,821 182,847C182,873 191,895 208,912C225,929 248,937 275,937C302,937 325,929 343,912C360,895 369,873 369,847z" /><glyph unicode="Ẓ" horiz-adv-x="544" d="M512,693l0,-124l-301,-438l306,0l-16,-131l-483,0l0,123l307,443l-276,0l0,127M170,-150C170,-124 179,-102 197,-85C214,-68 237,-60 264,-60C291,-60 314,-68 331,-85C348,-102 357,-124 357,-150C357,-176 348,-197 331,-214C314,-231 291,-240 264,-240C237,-240 214,-231 197,-214C179,-197 170,-176 170,-150z" /><glyph unicode="Ȥ" horiz-adv-x="538" d="M512,569l-301,-438l299,0l0,-162C510,-94 492,-141 456,-173C420,-206 371,-222 309,-222C252,-222 205,-208 168,-179l53,97C236,-90 249,-95 258,-98C267,-101 280,-103 295,-103C334,-103 353,-83 353,-42l0,42l-335,0l0,123l307,443l-276,0l0,127l463,0z" /><glyph unicode="Ƶ" horiz-adv-x="544" d="M197,131l320,0l-16,-131l-483,0l0,116l128,179l-81,0l0,104l155,0l119,167l-290,0l0,127l463,0l0,-118l-125,-176l80,0l0,-104l-154,0z" /><glyph unicode="ʙ" horiz-adv-x="557" d="M524,161C524,107 503,67 461,40C418,13 360,0 287,0l-225,0l0,526C141,541 211,548 272,548C344,548 400,536 441,512C481,487 501,451 501,404C501,374 492,350 473,331C454,312 426,299 389,292C479,281 524,238 524,161M220,445l0,-122l56,0C298,323 315,328 327,339C339,349 345,365 345,386C345,427 320,447 269,447C248,447 232,446 220,445M362,175C362,197 356,213 343,224C330,235 310,240 283,240l-63,0l0,-136l62,0C335,104 362,128 362,175z" /><glyph unicode="ɢ" horiz-adv-x="560" d="M513,476l-76,-83C416,408 397,419 378,426C359,433 339,436 316,436C278,436 248,422 227,393C206,364 195,322 195,268C195,205 204,161 221,136C238,110 263,97 297,97C325,97 349,102 370,111l0,96l-68,0l-15,104l231,0l0,-263C487,29 453,14 415,3C377,-9 337,-15 295,-15C120,-15 32,79 32,268C32,325 44,374 68,417C92,459 125,491 166,514C207,537 254,548 306,548C351,548 389,542 422,530C455,517 485,499 513,476z" /><glyph unicode="ʛ" horiz-adv-x="560" d="M678,721l-46,-98C619,630 608,635 598,638C588,641 577,642 565,642C548,642 535,637 526,628C517,618 513,602 513,581l0,-105l-68,-75C422,413 401,422 382,428C363,433 342,436 318,436C279,436 248,422 227,393C206,364 195,323 195,268C195,205 204,161 221,136C238,110 263,97 297,97C325,97 349,102 370,111l0,96l-68,0l-15,104l231,0l0,-263C489,29 456,13 419,2C381,-9 340,-15 297,-15C120,-15 32,79 32,268C32,324 44,373 67,416C90,459 122,491 162,514C201,537 245,548 292,548C323,548 351,544 374,535l0,53C374,643 388,685 417,715C445,744 487,759 543,759C594,759 639,746 678,721z" /><glyph unicode="ʜ" horiz-adv-x="586" d="M366,0l0,211l-146,0l0,-211l-158,0l0,531l158,0l0,-203l146,0l0,203l158,0l0,-531z" /><glyph unicode="ɪ" horiz-adv-x="337" d="M322,418l-75,0l0,-304l75,0l0,-114l-306,0l0,114l73,0l0,304l-73,0l0,113l306,0z" /><glyph unicode="ʟ" horiz-adv-x="450" d="M220,531l0,-409l222,0l-17,-122l-363,0l0,531z" /><glyph unicode="ɴ" horiz-adv-x="588" d="M526,0l-190,0l-158,394C185,350 191,310 196,274C200,238 202,197 202,150l0,-150l-140,0l0,531l188,0l159,-394C400,185 394,223 391,250C388,277 386,313 386,356l0,175l140,0z" /><glyph unicode="ɶ" horiz-adv-x="768" d="M495,110l248,0l0,-110l-355,0C357,-11 325,-17 292,-17C211,-17 148,8 102,58C55,107 32,177 32,266C32,323 43,372 64,415C85,457 115,490 154,513C193,536 239,548 292,548C327,548 360,542 392,531l353,0l-16,-109l-232,0C518,394 532,361 541,322l163,0l0,-106l-161,0C535,175 519,139 495,110M388,266C388,377 356,432 292,432C260,432 236,419 220,392C204,365 196,323 196,266C196,208 204,166 220,139C235,112 259,99 292,99C356,99 388,155 388,266z" /><glyph unicode="ʀ" horiz-adv-x="530" d="M257,183l-43,0l0,-183l-152,0l0,531l191,0C329,531 387,517 427,488C467,459 487,415 487,356C487,323 479,293 464,267C449,240 426,220 396,206l130,-206l-166,0M214,279l41,0C282,279 301,285 314,297C327,308 333,328 333,357C333,384 326,403 313,414C299,425 278,430 249,430l-35,0z" /><glyph unicode="ʁ" horiz-adv-x="530" d="M487,179C487,118 467,73 427,44C387,15 329,0 253,0l-191,0l0,531l152,0l0,-183l43,0l103,183l166,0l-129,-205C427,312 450,293 465,268C480,243 487,213 487,179M333,178C333,205 327,224 314,236C301,247 281,253 255,253l-41,0l0,-151l35,0C278,102 299,108 313,119C326,130 333,149 333,178z" /><glyph unicode="ʏ" horiz-adv-x="498" d="M510,531l-182,-339l0,-192l-158,0l0,191l-182,340l168,0l96,-238l95,238z" /><glyph unicode="a" horiz-adv-x="548" d="M520,89l-33,-103C454,-11 428,-4 407,8C386,19 370,38 359,63C324,10 271,-17 199,-17C146,-17 104,-2 73,29C42,60 26,100 26,149C26,207 47,251 90,282C133,313 194,328 275,328l54,0l0,23C329,382 322,404 309,416C296,427 272,433 239,433C222,433 201,431 176,426C151,421 126,414 100,405l-36,104C97,522 132,531 167,538C202,545 234,548 264,548C340,548 396,532 431,501C466,470 484,423 484,360l0,-206C484,134 487,119 493,110C498,101 507,94 520,89M329,147l0,94l-39,0C254,241 227,235 210,222C192,209 183,190 183,163C183,142 189,125 200,114C211,102 226,96 245,96C281,96 309,113 329,147z" /><glyph unicode="á" horiz-adv-x="548" d="M520,89l-33,-103C454,-11 428,-4 407,8C386,19 370,38 359,63C324,10 271,-17 199,-17C146,-17 104,-2 73,29C42,60 26,100 26,149C26,207 47,251 90,282C133,313 194,328 275,328l54,0l0,23C329,382 322,404 309,416C296,427 272,433 239,433C222,433 201,431 176,426C151,421 126,414 100,405l-36,104C97,522 132,531 167,538C202,545 234,548 264,548C340,548 396,532 431,501C466,470 484,423 484,360l0,-206C484,134 487,119 493,110C498,101 507,94 520,89M329,147l0,94l-39,0C254,241 227,235 210,222C192,209 183,190 183,163C183,142 189,125 200,114C211,102 226,96 245,96C281,96 309,113 329,147M343,835l62,-118l-236,-95l-44,81z" /><glyph unicode="ă" horiz-adv-x="548" d="M520,89l-33,-103C454,-11 428,-4 407,8C386,19 370,38 359,63C324,10 271,-17 199,-17C146,-17 104,-2 73,29C42,60 26,100 26,149C26,207 47,251 90,282C133,313 194,328 275,328l54,0l0,23C329,382 322,404 309,416C296,427 272,433 239,433C222,433 201,431 176,426C151,421 126,414 100,405l-36,104C97,522 132,531 167,538C202,545 234,548 264,548C340,548 396,532 431,501C466,470 484,423 484,360l0,-206C484,134 487,119 493,110C498,101 507,94 520,89M329,147l0,94l-39,0C254,241 227,235 210,222C192,209 183,190 183,163C183,142 189,125 200,114C211,102 226,96 245,96C281,96 309,113 329,147M98,805l87,15C198,768 226,742 270,742C313,742 342,768 356,820l87,-15C439,755 422,714 392,681C361,648 321,632 270,632C219,632 179,648 149,681C119,713 102,754 98,805z" /><glyph unicode="ắ" horiz-adv-x="548" d="M520,89l-33,-103C454,-11 428,-4 407,8C386,19 370,38 359,63C324,10 271,-17 199,-17C146,-17 104,-2 73,29C42,60 26,100 26,149C26,207 47,251 90,282C133,313 194,328 275,328l54,0l0,23C329,382 322,404 309,416C296,427 272,433 239,433C222,433 201,431 176,426C151,421 126,414 100,405l-36,104C97,522 132,531 167,538C202,545 234,548 264,548C340,548 396,532 431,501C466,470 484,423 484,360l0,-206C484,134 487,119 493,110C498,101 507,94 520,89M329,147l0,94l-39,0C254,241 227,235 210,222C192,209 183,190 183,163C183,142 189,125 200,114C211,102 226,96 245,96C281,96 309,113 329,147M99,764l87,15C193,758 203,742 217,730C231,717 249,711 271,711C293,711 311,717 325,730C339,742 350,758 357,779l87,-15C440,719 423,680 392,649C361,618 321,602 271,602C221,602 181,618 151,649C120,680 103,719 99,764M345,989l86,-84l-158,-141l-60,54z" /><glyph unicode="ặ" horiz-adv-x="548" d="M520,89l-33,-103C454,-11 428,-4 407,8C386,19 370,38 359,63C324,10 271,-17 199,-17C146,-17 104,-2 73,29C42,60 26,100 26,149C26,207 47,251 90,282C133,313 194,328 275,328l54,0l0,23C329,382 322,404 309,416C296,427 272,433 239,433C222,433 201,431 176,426C151,421 126,414 100,405l-36,104C97,522 132,531 167,538C202,545 234,548 264,548C340,548 396,532 431,501C466,470 484,423 484,360l0,-206C484,134 487,119 493,110C498,101 507,94 520,89M329,147l0,94l-39,0C254,241 227,235 210,222C192,209 183,190 183,163C183,142 189,125 200,114C211,102 226,96 245,96C281,96 309,113 329,147M98,805l87,15C198,768 226,742 270,742C313,742 342,768 356,820l87,-15C439,755 422,714 392,681C361,648 321,632 270,632C219,632 179,648 149,681C119,713 102,754 98,805M177,-150C177,-124 186,-102 204,-85C221,-68 244,-60 271,-60C298,-60 321,-68 338,-85C355,-102 364,-124 364,-150C364,-176 355,-197 338,-214C321,-231 298,-240 271,-240C244,-240 221,-231 204,-214C186,-197 177,-176 177,-150z" /><glyph unicode="ằ" horiz-adv-x="548" d="M520,89l-33,-103C454,-11 428,-4 407,8C386,19 370,38 359,63C324,10 271,-17 199,-17C146,-17 104,-2 73,29C42,60 26,100 26,149C26,207 47,251 90,282C133,313 194,328 275,328l54,0l0,23C329,382 322,404 309,416C296,427 272,433 239,433C222,433 201,431 176,426C151,421 126,414 100,405l-36,104C97,522 132,531 167,538C202,545 234,548 264,548C340,548 396,532 431,501C466,470 484,423 484,360l0,-206C484,134 487,119 493,110C498,101 507,94 520,89M329,147l0,94l-39,0C254,241 227,235 210,222C192,209 183,190 183,163C183,142 189,125 200,114C211,102 226,96 245,96C281,96 309,113 329,147M99,764l87,15C193,758 203,742 217,730C231,717 249,711 271,711C293,711 311,717 325,730C339,742 350,758 357,779l87,-15C440,719 423,680 392,649C361,618 321,602 271,602C221,602 181,618 151,649C120,680 103,719 99,764M196,989l131,-171l-59,-54l-158,141z" /><glyph unicode="ẳ" horiz-adv-x="548" d="M520,89l-33,-103C454,-11 428,-4 407,8C386,19 370,38 359,63C324,10 271,-17 199,-17C146,-17 104,-2 73,29C42,60 26,100 26,149C26,207 47,251 90,282C133,313 194,328 275,328l54,0l0,23C329,382 322,404 309,416C296,427 272,433 239,433C222,433 201,431 176,426C151,421 126,414 100,405l-36,104C97,522 132,531 167,538C202,545 234,548 264,548C340,548 396,532 431,501C466,470 484,423 484,360l0,-206C484,134 487,119 493,110C498,101 507,94 520,89M329,147l0,94l-39,0C254,241 227,235 210,222C192,209 183,190 183,163C183,142 189,125 200,114C211,102 226,96 245,96C281,96 309,113 329,147M99,764l87,15C193,758 203,742 217,730C231,717 249,711 271,711C293,711 311,717 325,730C339,742 350,758 357,779l87,-15C440,719 423,680 392,649C361,618 321,602 271,602C221,602 181,618 151,649C120,680 103,719 99,764M224,864C249,865 268,869 279,875C290,880 295,889 295,902C295,912 292,920 285,925C278,930 268,933 255,933C237,933 217,929 195,920l-26,66C199,1003 235,1012 278,1012C317,1012 348,1003 370,985C391,966 402,942 402,911C402,885 395,864 381,849C366,833 345,822 318,817l0,-52l-94,0z" /><glyph unicode="ẵ" horiz-adv-x="548" d="M520,89l-33,-103C454,-11 428,-4 407,8C386,19 370,38 359,63C324,10 271,-17 199,-17C146,-17 104,-2 73,29C42,60 26,100 26,149C26,207 47,251 90,282C133,313 194,328 275,328l54,0l0,23C329,382 322,404 309,416C296,427 272,433 239,433C222,433 201,431 176,426C151,421 126,414 100,405l-36,104C97,522 132,531 167,538C202,545 234,548 264,548C340,548 396,532 431,501C466,470 484,423 484,360l0,-206C484,134 487,119 493,110C498,101 507,94 520,89M329,147l0,94l-39,0C254,241 227,235 210,222C192,209 183,190 183,163C183,142 189,125 200,114C211,102 226,96 245,96C281,96 309,113 329,147M99,764l87,15C193,758 203,742 217,730C231,717 249,711 271,711C293,711 311,717 325,730C339,742 350,758 357,779l87,-15C440,719 423,680 392,649C361,618 321,602 271,602C221,602 181,618 151,649C120,680 103,719 99,764M257,831C248,837 241,841 235,844C228,847 222,848 216,848C205,848 195,845 188,838C180,831 172,821 163,806l-79,36C97,875 115,901 138,922C160,943 185,953 213,953C228,953 242,951 253,947C264,942 276,936 289,927C298,921 306,917 312,914C317,911 323,910 329,910C340,910 349,913 357,920C364,927 372,937 381,952l79,-37C446,882 428,855 406,835C383,815 358,805 330,805C315,805 303,807 292,812C281,817 269,823 257,831z" /><glyph unicode="ǎ" horiz-adv-x="548" d="M520,89l-33,-103C454,-11 428,-4 407,8C386,19 370,38 359,63C324,10 271,-17 199,-17C146,-17 104,-2 73,29C42,60 26,100 26,149C26,207 47,251 90,282C133,313 194,328 275,328l54,0l0,23C329,382 322,404 309,416C296,427 272,433 239,433C222,433 201,431 176,426C151,421 126,414 100,405l-36,104C97,522 132,531 167,538C202,545 234,548 264,548C340,548 396,532 431,501C466,470 484,423 484,360l0,-206C484,134 487,119 493,110C498,101 507,94 520,89M329,147l0,94l-39,0C254,241 227,235 210,222C192,209 183,190 183,163C183,142 189,125 200,114C211,102 226,96 245,96C281,96 309,113 329,147M404,813l56,-65l-141,-137l-96,0l-142,137l57,65l133,-91z" /><glyph unicode="â" horiz-adv-x="548" d="M520,89l-33,-103C454,-11 428,-4 407,8C386,19 370,38 359,63C324,10 271,-17 199,-17C146,-17 104,-2 73,29C42,60 26,100 26,149C26,207 47,251 90,282C133,313 194,328 275,328l54,0l0,23C329,382 322,404 309,416C296,427 272,433 239,433C222,433 201,431 176,426C151,421 126,414 100,405l-36,104C97,522 132,531 167,538C202,545 234,548 264,548C340,548 396,532 431,501C466,470 484,423 484,360l0,-206C484,134 487,119 493,110C498,101 507,94 520,89M329,147l0,94l-39,0C254,241 227,235 210,222C192,209 183,190 183,163C183,142 189,125 200,114C211,102 226,96 245,96C281,96 309,113 329,147M137,620l-56,65l141,137l97,0l141,-137l-56,-65l-133,92z" /><glyph unicode="ấ" horiz-adv-x="548" d="M520,89l-33,-103C454,-11 428,-4 407,8C386,19 370,38 359,63C324,10 271,-17 199,-17C146,-17 104,-2 73,29C42,60 26,100 26,149C26,207 47,251 90,282C133,313 194,328 275,328l54,0l0,23C329,382 322,404 309,416C296,427 272,433 239,433C222,433 201,431 176,426C151,421 126,414 100,405l-36,104C97,522 132,531 167,538C202,545 234,548 264,548C340,548 396,532 431,501C466,470 484,423 484,360l0,-206C484,134 487,119 493,110C498,101 507,94 520,89M329,147l0,94l-39,0C254,241 227,235 210,222C192,209 183,190 183,163C183,142 189,125 200,114C211,102 226,96 245,96C281,96 309,113 329,147M136,585l-57,65l142,129l96,0l141,-129l-56,-65l-133,84M504,958l86,-84l-158,-141l-60,54z" /><glyph unicode="ậ" horiz-adv-x="548" d="M520,89l-33,-103C454,-11 428,-4 407,8C386,19 370,38 359,63C324,10 271,-17 199,-17C146,-17 104,-2 73,29C42,60 26,100 26,149C26,207 47,251 90,282C133,313 194,328 275,328l54,0l0,23C329,382 322,404 309,416C296,427 272,433 239,433C222,433 201,431 176,426C151,421 126,414 100,405l-36,104C97,522 132,531 167,538C202,545 234,548 264,548C340,548 396,532 431,501C466,470 484,423 484,360l0,-206C484,134 487,119 493,110C498,101 507,94 520,89M329,147l0,94l-39,0C254,241 227,235 210,222C192,209 183,190 183,163C183,142 189,125 200,114C211,102 226,96 245,96C281,96 309,113 329,147M137,620l-56,65l141,137l97,0l141,-137l-56,-65l-133,92M177,-150C177,-124 186,-102 204,-85C221,-68 244,-60 271,-60C298,-60 321,-68 338,-85C355,-102 364,-124 364,-150C364,-176 355,-197 338,-214C321,-231 298,-240 271,-240C244,-240 221,-231 204,-214C186,-197 177,-176 177,-150z" /><glyph unicode="ầ" horiz-adv-x="548" d="M520,89l-33,-103C454,-11 428,-4 407,8C386,19 370,38 359,63C324,10 271,-17 199,-17C146,-17 104,-2 73,29C42,60 26,100 26,149C26,207 47,251 90,282C133,313 194,328 275,328l54,0l0,23C329,382 322,404 309,416C296,427 272,433 239,433C222,433 201,431 176,426C151,421 126,414 100,405l-36,104C97,522 132,531 167,538C202,545 234,548 264,548C340,548 396,532 431,501C466,470 484,423 484,360l0,-206C484,134 487,119 493,110C498,101 507,94 520,89M329,147l0,94l-39,0C254,241 227,235 210,222C192,209 183,190 183,163C183,142 189,125 200,114C211,102 226,96 245,96C281,96 309,113 329,147M136,585l-57,65l142,129l96,0l141,-129l-56,-65l-133,84M36,958l131,-171l-59,-54l-158,141z" /><glyph unicode="ẩ" horiz-adv-x="548" d="M520,89l-33,-103C454,-11 428,-4 407,8C386,19 370,38 359,63C324,10 271,-17 199,-17C146,-17 104,-2 73,29C42,60 26,100 26,149C26,207 47,251 90,282C133,313 194,328 275,328l54,0l0,23C329,382 322,404 309,416C296,427 272,433 239,433C222,433 201,431 176,426C151,421 126,414 100,405l-36,104C97,522 132,531 167,538C202,545 234,548 264,548C340,548 396,532 431,501C466,470 484,423 484,360l0,-206C484,134 487,119 493,110C498,101 507,94 520,89M329,147l0,94l-39,0C254,241 227,235 210,222C192,209 183,190 183,163C183,142 189,125 200,114C211,102 226,96 245,96C281,96 309,113 329,147M136,585l-57,65l142,129l96,0l141,-129l-56,-65l-133,84M374,853C399,854 418,858 429,864C440,869 445,878 445,891C445,901 442,909 435,914C428,919 418,922 405,922C387,922 367,918 345,909l-26,66C349,992 385,1001 428,1001C467,1001 498,992 520,974C541,955 552,931 552,900C552,874 545,853 531,838C516,822 495,811 468,806l0,-52l-94,0z" /><glyph unicode="ẫ" horiz-adv-x="548" d="M520,89l-33,-103C454,-11 428,-4 407,8C386,19 370,38 359,63C324,10 271,-17 199,-17C146,-17 104,-2 73,29C42,60 26,100 26,149C26,207 47,251 90,282C133,313 194,328 275,328l54,0l0,23C329,382 322,404 309,416C296,427 272,433 239,433C222,433 201,431 176,426C151,421 126,414 100,405l-36,104C97,522 132,531 167,538C202,545 234,548 264,548C340,548 396,532 431,501C466,470 484,423 484,360l0,-206C484,134 487,119 493,110C498,101 507,94 520,89M329,147l0,94l-39,0C254,241 227,235 210,222C192,209 183,190 183,163C183,142 189,125 200,114C211,102 226,96 245,96C281,96 309,113 329,147M136,581l-57,65l142,129l96,0l141,-129l-56,-65l-133,84M253,827C244,833 237,837 231,840C224,843 218,844 212,844C201,844 191,841 184,834C176,827 168,817 159,802l-79,36C93,871 111,897 134,918C156,939 181,949 209,949C224,949 238,947 249,943C260,938 272,932 285,923C294,917 302,913 308,910C313,907 319,906 325,906C336,906 345,909 353,916C360,923 368,933 377,948l79,-37C442,878 424,851 402,831C379,811 354,801 326,801C311,801 299,803 288,808C277,813 265,819 253,827z" /><glyph unicode="ȁ" horiz-adv-x="548" d="M520,89l-33,-103C454,-11 428,-4 407,8C386,19 370,38 359,63C324,10 271,-17 199,-17C146,-17 104,-2 73,29C42,60 26,100 26,149C26,207 47,251 90,282C133,313 194,328 275,328l54,0l0,23C329,382 322,404 309,416C296,427 272,433 239,433C222,433 201,431 176,426C151,421 126,414 100,405l-36,104C97,522 132,531 167,538C202,545 234,548 264,548C340,548 396,532 431,501C466,470 484,423 484,360l0,-206C484,134 487,119 493,110C498,101 507,94 520,89M329,147l0,94l-39,0C254,241 227,235 210,222C192,209 183,190 183,163C183,142 189,125 200,114C211,102 226,96 245,96C281,96 309,113 329,147M152,860l97,-197l-81,-38l-122,182M328,860l88,-197l-83,-33l-113,180z" /><glyph unicode="ä" horiz-adv-x="548" d="M520,89l-33,-103C454,-11 428,-4 407,8C386,19 370,38 359,63C324,10 271,-17 199,-17C146,-17 104,-2 73,29C42,60 26,100 26,149C26,207 47,251 90,282C133,313 194,328 275,328l54,0l0,23C329,382 322,404 309,416C296,427 272,433 239,433C222,433 201,431 176,426C151,421 126,414 100,405l-36,104C97,522 132,531 167,538C202,545 234,548 264,548C340,548 396,532 431,501C466,470 484,423 484,360l0,-206C484,134 487,119 493,110C498,101 507,94 520,89M329,147l0,94l-39,0C254,241 227,235 210,222C192,209 183,190 183,163C183,142 189,125 200,114C211,102 226,96 245,96C281,96 309,113 329,147M236,720C236,698 228,679 213,664C197,649 178,641 155,641C132,641 113,649 98,664C82,679 74,698 74,720C74,742 82,761 98,776C113,791 132,799 155,799C178,799 197,791 213,776C228,761 236,742 236,720M467,720C467,698 459,679 444,664C429,649 409,641 386,641C364,641 345,649 330,664C314,679 306,698 306,720C306,742 314,761 330,776C345,791 364,799 386,799C409,799 429,791 444,776C459,761 467,742 467,720z" /><glyph unicode="ǟ" horiz-adv-x="548" d="M520,89l-33,-103C454,-11 428,-4 407,8C386,19 370,38 359,63C324,10 271,-17 199,-17C146,-17 104,-2 73,29C42,60 26,100 26,149C26,207 47,251 90,282C133,313 194,328 275,328l54,0l0,23C329,382 322,404 309,416C296,427 272,433 239,433C222,433 201,431 176,426C151,421 126,414 100,405l-36,104C97,522 132,531 167,538C202,545 234,548 264,548C340,548 396,532 431,501C466,470 484,423 484,360l0,-206C484,134 487,119 493,110C498,101 507,94 520,89M329,147l0,94l-39,0C254,241 227,235 210,222C192,209 183,190 183,163C183,142 189,125 200,114C211,102 226,96 245,96C281,96 309,113 329,147M235,681C235,659 227,640 212,625C196,610 177,602 154,602C131,602 112,610 97,625C81,640 73,659 73,681C73,703 81,722 97,737C112,752 131,760 154,760C177,760 196,752 212,737C227,722 235,703 235,681M466,681C466,659 458,640 443,625C428,610 408,602 385,602C363,602 344,610 329,625C313,640 305,659 305,681C305,703 313,722 329,737C344,752 363,760 385,760C408,760 428,752 443,737C458,722 466,703 466,681M422,801l-305,0l0,110l305,0z" /><glyph unicode="ȧ" horiz-adv-x="548" d="M520,89l-33,-103C454,-11 428,-4 407,8C386,19 370,38 359,63C324,10 271,-17 199,-17C146,-17 104,-2 73,29C42,60 26,100 26,149C26,207 47,251 90,282C133,313 194,328 275,328l54,0l0,23C329,382 322,404 309,416C296,427 272,433 239,433C222,433 201,431 176,426C151,421 126,414 100,405l-36,104C97,522 132,531 167,538C202,545 234,548 264,548C340,548 396,532 431,501C466,470 484,423 484,360l0,-206C484,134 487,119 493,110C498,101 507,94 520,89M329,147l0,94l-39,0C254,241 227,235 210,222C192,209 183,190 183,163C183,142 189,125 200,114C211,102 226,96 245,96C281,96 309,113 329,147M364,721C364,695 355,674 338,657C320,640 297,631 270,631C243,631 220,640 203,657C186,674 177,695 177,721C177,747 186,769 203,786C220,803 243,811 270,811C297,811 320,803 338,786C355,769 364,747 364,721z" /><glyph unicode="ạ" horiz-adv-x="548" d="M520,89l-33,-103C454,-11 428,-4 407,8C386,19 370,38 359,63C324,10 271,-17 199,-17C146,-17 104,-2 73,29C42,60 26,100 26,149C26,207 47,251 90,282C133,313 194,328 275,328l54,0l0,23C329,382 322,404 309,416C296,427 272,433 239,433C222,433 201,431 176,426C151,421 126,414 100,405l-36,104C97,522 132,531 167,538C202,545 234,548 264,548C340,548 396,532 431,501C466,470 484,423 484,360l0,-206C484,134 487,119 493,110C498,101 507,94 520,89M329,147l0,94l-39,0C254,241 227,235 210,222C192,209 183,190 183,163C183,142 189,125 200,114C211,102 226,96 245,96C281,96 309,113 329,147M177,-150C177,-124 186,-102 204,-85C221,-68 244,-60 271,-60C298,-60 321,-68 338,-85C355,-102 364,-124 364,-150C364,-176 355,-197 338,-214C321,-231 298,-240 271,-240C244,-240 221,-231 204,-214C186,-197 177,-176 177,-150z" /><glyph unicode="ǡ" horiz-adv-x="548" d="M520,89l-33,-103C454,-11 428,-4 407,8C386,19 370,38 359,63C324,10 271,-17 199,-17C146,-17 104,-2 73,29C42,60 26,100 26,149C26,207 47,251 90,282C133,313 194,328 275,328l54,0l0,23C329,382 322,404 309,416C296,427 272,433 239,433C222,433 201,431 176,426C151,421 126,414 100,405l-36,104C97,522 132,531 167,538C202,545 234,548 264,548C340,548 396,532 431,501C466,470 484,423 484,360l0,-206C484,134 487,119 493,110C498,101 507,94 520,89M329,147l0,94l-39,0C254,241 227,235 210,222C192,209 183,190 183,163C183,142 189,125 200,114C211,102 226,96 245,96C281,96 309,113 329,147M364,683C364,657 355,636 338,619C320,602 297,593 270,593C243,593 220,602 203,619C186,636 177,657 177,683C177,709 186,731 203,748C220,765 243,773 270,773C297,773 320,765 338,748C355,731 364,709 364,683M423,803l-305,0l0,110l305,0z" /><glyph unicode="à" horiz-adv-x="548" d="M520,89l-33,-103C454,-11 428,-4 407,8C386,19 370,38 359,63C324,10 271,-17 199,-17C146,-17 104,-2 73,29C42,60 26,100 26,149C26,207 47,251 90,282C133,313 194,328 275,328l54,0l0,23C329,382 322,404 309,416C296,427 272,433 239,433C222,433 201,431 176,426C151,421 126,414 100,405l-36,104C97,522 132,531 167,538C202,545 234,548 264,548C340,548 396,532 431,501C466,470 484,423 484,360l0,-206C484,134 487,119 493,110C498,101 507,94 520,89M329,147l0,94l-39,0C254,241 227,235 210,222C192,209 183,190 183,163C183,142 189,125 200,114C211,102 226,96 245,96C281,96 309,113 329,147M203,835l218,-132l-44,-81l-236,95z" /><glyph unicode="ả" horiz-adv-x="548" d="M520,89l-33,-103C454,-11 428,-4 407,8C386,19 370,38 359,63C324,10 271,-17 199,-17C146,-17 104,-2 73,29C42,60 26,100 26,149C26,207 47,251 90,282C133,313 194,328 275,328l54,0l0,23C329,382 322,404 309,416C296,427 272,433 239,433C222,433 201,431 176,426C151,421 126,414 100,405l-36,104C97,522 132,531 167,538C202,545 234,548 264,548C340,548 396,532 431,501C466,470 484,423 484,360l0,-206C484,134 487,119 493,110C498,101 507,94 520,89M329,147l0,94l-39,0C254,241 227,235 210,222C192,209 183,190 183,163C183,142 189,125 200,114C211,102 226,96 245,96C281,96 309,113 329,147M223,704C248,705 267,709 278,715C289,720 294,729 294,742C294,752 291,760 284,765C277,770 267,773 254,773C236,773 216,769 194,760l-26,66C198,843 234,852 277,852C316,852 347,843 369,825C390,806 401,782 401,751C401,725 394,704 380,689C365,673 344,662 317,657l0,-52l-94,0z" /><glyph unicode="ȃ" horiz-adv-x="548" d="M520,89l-33,-103C454,-11 428,-4 407,8C386,19 370,38 359,63C324,10 271,-17 199,-17C146,-17 104,-2 73,29C42,60 26,100 26,149C26,207 47,251 90,282C133,313 194,328 275,328l54,0l0,23C329,382 322,404 309,416C296,427 272,433 239,433C222,433 201,431 176,426C151,421 126,414 100,405l-36,104C97,522 132,531 167,538C202,545 234,548 264,548C340,548 396,532 431,501C466,470 484,423 484,360l0,-206C484,134 487,119 493,110C498,101 507,94 520,89M329,147l0,94l-39,0C254,241 227,235 210,222C192,209 183,190 183,163C183,142 189,125 200,114C211,102 226,96 245,96C281,96 309,113 329,147M443,617l-87,-15C342,654 313,680 270,680C226,680 198,654 185,602l-87,15C102,668 119,709 149,742C179,774 219,790 270,790C321,790 361,774 392,741C422,708 439,667 443,617z" /><glyph unicode="ɑ" horiz-adv-x="597" d="M573,97l-46,-114C492,-10 463,0 442,13C420,26 403,43 392,64C374,39 352,20 325,5C298,-10 268,-17 237,-17C171,-17 120,8 85,59C50,110 32,179 32,267C32,322 41,370 59,413C77,455 103,488 136,512C169,536 208,548 253,548C307,548 351,527 384,486l9,45l137,0l0,-353C530,155 533,137 540,126C546,115 557,105 573,97M372,157l0,232C359,404 346,415 333,422C320,429 305,433 288,433C259,433 237,420 221,393C204,366 196,323 196,266C196,204 203,161 218,136C233,111 254,99 281,99C317,99 347,118 372,157z" /><glyph unicode="ɒ" horiz-adv-x="597" d="M565,264C565,209 556,161 538,119C520,76 494,43 461,19C428,-5 389,-17 344,-17C290,-17 246,4 213,45l-9,-45l-137,0l0,353C67,376 64,394 58,405C51,416 40,426 24,434l46,114C105,541 134,532 156,519C177,506 194,488 205,467C223,492 246,511 273,526C300,541 329,548 360,548C426,548 477,523 512,472C547,421 565,352 565,264M401,265C401,327 394,370 379,395C364,420 343,432 316,432C280,432 250,413 225,374l0,-232C238,127 251,116 264,109C277,102 292,98 309,98C338,98 360,112 377,139C393,166 401,208 401,265z" /><glyph unicode="ā" horiz-adv-x="548" d="M520,89l-33,-103C454,-11 428,-4 407,8C386,19 370,38 359,63C324,10 271,-17 199,-17C146,-17 104,-2 73,29C42,60 26,100 26,149C26,207 47,251 90,282C133,313 194,328 275,328l54,0l0,23C329,382 322,404 309,416C296,427 272,433 239,433C222,433 201,431 176,426C151,421 126,414 100,405l-36,104C97,522 132,531 167,538C202,545 234,548 264,548C340,548 396,532 431,501C466,470 484,423 484,360l0,-206C484,134 487,119 493,110C498,101 507,94 520,89M329,147l0,94l-39,0C254,241 227,235 210,222C192,209 183,190 183,163C183,142 189,125 200,114C211,102 226,96 245,96C281,96 309,113 329,147M423,655l-305,0l0,110l305,0z" /><glyph unicode="ą" horiz-adv-x="548" d="M369,-116C369,-147 387,-162 422,-162C438,-162 458,-159 483,-154l-11,-98C449,-257 425,-260 402,-260C359,-260 323,-249 296,-228C269,-207 255,-178 255,-143C255,-75 302,-22 396,15C381,26 369,42 359,63C324,10 271,-17 199,-17C146,-17 104,-2 73,29C42,60 26,100 26,149C26,207 47,251 90,282C133,313 194,328 275,328l54,0l0,23C329,382 322,404 309,416C296,427 272,433 239,433C222,433 201,431 176,426C151,421 126,414 100,405l-36,104C97,522 132,531 167,538C202,545 234,548 264,548C340,548 396,532 431,501C466,470 484,423 484,360l0,-206C484,134 487,119 493,110C498,101 507,94 520,89l-33,-103C408,-43 369,-77 369,-116M329,147l0,94l-39,0C254,241 227,235 210,222C192,209 183,190 183,163C183,142 189,125 200,114C211,102 226,96 245,96C281,96 309,113 329,147z" /><glyph unicode="å" horiz-adv-x="548" d="M520,89l-33,-103C454,-11 428,-4 407,8C386,19 370,38 359,63C324,10 271,-17 199,-17C146,-17 104,-2 73,29C42,60 26,100 26,149C26,207 47,251 90,282C133,313 194,328 275,328l54,0l0,23C329,382 322,404 309,416C296,427 272,433 239,433C222,433 201,431 176,426C151,421 126,414 100,405l-36,104C97,522 132,531 167,538C202,545 234,548 264,548C340,548 396,532 431,501C466,470 484,423 484,360l0,-206C484,134 487,119 493,110C498,101 507,94 520,89M329,147l0,94l-39,0C254,241 227,235 210,222C192,209 183,190 183,163C183,142 189,125 200,114C211,102 226,96 245,96C281,96 309,113 329,147M410,736C410,699 397,668 372,643C347,618 313,605 271,605C229,605 195,618 170,643C145,668 132,699 132,736C132,773 145,804 170,829C195,854 229,867 271,867C313,867 347,854 372,829C397,804 410,773 410,736M226,736C226,720 230,708 238,699C246,690 257,686 271,686C284,686 295,690 304,699C312,708 316,720 316,736C316,752 312,764 304,773C296,782 285,786 271,786C257,786 246,782 238,773C230,764 226,752 226,736z" /><glyph unicode="ǻ" horiz-adv-x="548" d="M411,930l-240,-87l-40,80l221,125M131,708C131,745 144,776 169,801C194,826 228,839 270,839C312,839 346,826 371,801C396,776 409,745 409,708C409,671 396,640 371,615C346,590 312,577 270,577C228,577 194,590 169,615C144,640 131,671 131,708M225,708C225,692 229,680 237,671C245,662 256,658 270,658C283,658 294,662 303,671C311,680 315,692 315,708C315,724 311,736 303,745C295,754 284,758 270,758C256,758 245,754 237,745C229,736 225,724 225,708M520,89l-33,-103C454,-11 428,-4 407,8C386,19 370,38 359,63C324,10 271,-17 199,-17C146,-17 104,-2 73,29C42,60 26,100 26,149C26,207 47,251 90,282C133,313 194,328 275,328l54,0l0,23C329,382 322,404 309,416C296,427 272,433 239,433C222,433 201,431 176,426C151,421 126,414 100,405l-36,104C97,522 132,531 167,538C202,545 234,548 264,548C340,548 396,532 431,501C466,470 484,423 484,360l0,-206C484,134 487,119 493,110C498,101 507,94 520,89M329,147l0,94l-39,0C254,241 227,235 210,222C192,209 183,190 183,163C183,142 189,125 200,114C211,102 226,96 245,96C281,96 309,113 329,147z" /><glyph unicode="ⱥ" horiz-adv-x="548" d="M520,89l-33,-103C454,-11 428,-4 407,8C386,19 370,38 359,63C330,16 286,-10 228,-15l-15,-59l-53,12l12,47C127,-10 92,8 66,38C39,68 26,105 26,149C26,202 46,243 85,273C124,303 181,319 255,322l30,119C280,442 271,442 258,442C237,442 211,440 182,435C153,430 125,423 100,414l-36,95C97,522 132,531 167,538C202,545 234,548 264,548C277,548 292,547 311,546l14,55l52,-13l-13,-52C444,513 484,454 484,360l0,-206C484,134 487,119 493,110C498,101 507,94 520,89M334,416l-23,-94l36,0l0,39C347,385 343,403 334,416M347,145l0,96l-56,0l-37,-151C289,94 320,112 347,145M200,98l34,138C192,227 171,202 171,159C171,129 181,109 200,98z" /><glyph unicode="ã" horiz-adv-x="548" d="M520,89l-33,-103C454,-11 428,-4 407,8C386,19 370,38 359,63C324,10 271,-17 199,-17C146,-17 104,-2 73,29C42,60 26,100 26,149C26,207 47,251 90,282C133,313 194,328 275,328l54,0l0,23C329,382 322,404 309,416C296,427 272,433 239,433C222,433 201,431 176,426C151,421 126,414 100,405l-36,104C97,522 132,531 167,538C202,545 234,548 264,548C340,548 396,532 431,501C466,470 484,423 484,360l0,-206C484,134 487,119 493,110C498,101 507,94 520,89M329,147l0,94l-39,0C254,241 227,235 210,222C192,209 183,190 183,163C183,142 189,125 200,114C211,102 226,96 245,96C281,96 309,113 329,147M256,662C239,674 226,680 215,680C204,680 194,677 187,670C179,663 171,651 162,636l-79,38C96,709 114,737 137,759C159,781 184,792 212,792C227,792 241,790 252,785C263,780 275,773 288,764C297,758 305,754 311,751C316,748 322,747 328,747C339,747 348,751 356,758C363,765 371,776 380,791l79,-39C445,717 427,688 405,667C382,646 357,635 329,635C314,635 302,637 291,642C280,647 269,653 256,662z" /><glyph unicode="ɐ" horiz-adv-x="548" d="M448,126l36,-104C451,9 417,0 382,-7C347,-14 314,-17 284,-17C208,-17 152,-1 117,30C82,61 64,108 64,171l0,206C64,397 61,412 56,421C50,430 41,437 28,442l33,103C94,542 120,535 141,524C162,512 178,493 189,468C224,521 277,548 349,548C402,548 444,533 475,502C506,471 522,431 522,382C522,324 501,280 458,249C415,218 354,203 273,203l-54,0l0,-23C219,149 226,127 239,116C252,104 276,98 309,98C326,98 347,101 372,106C397,111 422,117 448,126M219,384l0,-94l39,0C294,290 321,296 339,309C356,322 365,341 365,368C365,389 360,406 349,418C338,429 322,435 303,435C267,435 239,418 219,384z" /><glyph unicode="æ" horiz-adv-x="855" d="M825,219l-329,0C501,174 513,143 534,125C554,107 582,98 617,98C638,98 659,102 679,110C699,117 721,129 744,145l65,-88C747,8 678,-17 602,-17C555,-17 514,-9 479,7C443,23 414,45 391,74C348,13 286,-17 203,-17C149,-17 106,-2 74,29C42,60 26,100 26,149C26,207 48,251 92,282C135,313 198,328 281,328l54,0l0,22C335,381 328,402 315,414C301,426 278,432 245,432C228,432 207,430 182,425C157,420 132,413 106,404l-36,105C103,522 138,531 173,538C208,545 240,548 270,548C344,548 398,526 433,481C476,526 530,548 595,548C642,548 683,537 718,516C753,494 780,463 799,422C818,381 828,333 828,276C828,254 827,235 825,219M672,321C672,402 643,443 586,443C559,443 539,433 524,413C509,393 499,360 496,314l176,0M348,160C342,181 338,205 337,234l0,4l-40,0C262,238 236,232 219,220C202,207 193,187 193,160C193,140 198,124 209,113C219,102 234,96 253,96C272,96 289,101 304,112C319,123 333,139 348,160z" /><glyph unicode="ǽ" horiz-adv-x="855" d="M825,219l-329,0C501,174 513,143 534,125C554,107 582,98 617,98C638,98 659,102 679,110C699,117 721,129 744,145l65,-88C747,8 678,-17 602,-17C555,-17 514,-9 479,7C443,23 414,45 391,74C348,13 286,-17 203,-17C149,-17 106,-2 74,29C42,60 26,100 26,149C26,207 48,251 92,282C135,313 198,328 281,328l54,0l0,22C335,381 328,402 315,414C301,426 278,432 245,432C228,432 207,430 182,425C157,420 132,413 106,404l-36,105C103,522 138,531 173,538C208,545 240,548 270,548C344,548 398,526 433,481C476,526 530,548 595,548C642,548 683,537 718,516C753,494 780,463 799,422C818,381 828,333 828,276C828,254 827,235 825,219M672,321C672,402 643,443 586,443C559,443 539,433 524,413C509,393 499,360 496,314l176,0M348,160C342,181 338,205 337,234l0,4l-40,0C262,238 236,232 219,220C202,207 193,187 193,160C193,140 198,124 209,113C219,102 234,96 253,96C272,96 289,101 304,112C319,123 333,139 348,160M501,835l62,-118l-236,-95l-44,81z" /><glyph unicode="ǣ" horiz-adv-x="855" d="M825,219l-329,0C501,174 513,143 534,125C554,107 582,98 617,98C638,98 659,102 679,110C699,117 721,129 744,145l65,-88C747,8 678,-17 602,-17C555,-17 514,-9 479,7C443,23 414,45 391,74C348,13 286,-17 203,-17C149,-17 106,-2 74,29C42,60 26,100 26,149C26,207 48,251 92,282C135,313 198,328 281,328l54,0l0,22C335,381 328,402 315,414C301,426 278,432 245,432C228,432 207,430 182,425C157,420 132,413 106,404l-36,105C103,522 138,531 173,538C208,545 240,548 270,548C344,548 398,526 433,481C476,526 530,548 595,548C642,548 683,537 718,516C753,494 780,463 799,422C818,381 828,333 828,276C828,254 827,235 825,219M672,321C672,402 643,443 586,443C559,443 539,433 524,413C509,393 499,360 496,314l176,0M348,160C342,181 338,205 337,234l0,4l-40,0C262,238 236,232 219,220C202,207 193,187 193,160C193,140 198,124 209,113C219,102 234,96 253,96C272,96 289,101 304,112C319,123 333,139 348,160M581,655l-305,0l0,110l305,0z" /><glyph unicode="b" horiz-adv-x="597" d="M560,265C560,210 552,162 535,119C518,76 493,43 462,19C430,-5 392,-17 349,-17C320,-17 294,-11 271,1C247,13 227,30 210,51l-8,-51l-140,0l0,742l158,17l0,-282C236,499 257,516 282,529C307,542 334,548 363,548C426,548 475,523 509,474C543,424 560,354 560,265M396,265C396,328 389,372 374,396C359,420 338,432 310,432C275,432 245,411 220,370l0,-221C230,133 242,121 257,112C271,103 286,98 303,98C365,98 396,154 396,265z" /><glyph unicode="ḃ" horiz-adv-x="597" d="M560,265C560,210 552,162 535,119C518,76 493,43 462,19C430,-5 392,-17 349,-17C320,-17 294,-11 271,1C247,13 227,30 210,51l-8,-51l-140,0l0,742l158,17l0,-282C236,499 257,516 282,529C307,542 334,548 363,548C426,548 475,523 509,474C543,424 560,354 560,265M396,265C396,328 389,372 374,396C359,420 338,432 310,432C275,432 245,411 220,370l0,-221C230,133 242,121 257,112C271,103 286,98 303,98C365,98 396,154 396,265M412,896C412,870 403,849 386,832C368,815 345,806 318,806C291,806 268,815 251,832C234,849 225,870 225,896C225,922 234,944 251,961C268,978 291,986 318,986C345,986 368,978 386,961C403,944 412,922 412,896z" /><glyph unicode="ḅ" horiz-adv-x="597" d="M560,265C560,210 552,162 535,119C518,76 493,43 462,19C430,-5 392,-17 349,-17C320,-17 294,-11 271,1C247,13 227,30 210,51l-8,-51l-140,0l0,742l158,17l0,-282C236,499 257,516 282,529C307,542 334,548 363,548C426,548 475,523 509,474C543,424 560,354 560,265M396,265C396,328 389,372 374,396C359,420 338,432 310,432C275,432 245,411 220,370l0,-221C230,133 242,121 257,112C271,103 286,98 303,98C365,98 396,154 396,265M214,-150C214,-124 223,-102 241,-85C258,-68 281,-60 308,-60C335,-60 358,-68 375,-85C392,-102 401,-124 401,-150C401,-176 392,-197 375,-214C358,-231 335,-240 308,-240C281,-240 258,-231 241,-214C223,-197 214,-176 214,-150z" /><glyph unicode="ꞵ" horiz-adv-x="607" d="M581,207C581,163 571,124 552,90C532,56 505,30 471,11C437,-8 399,-17 356,-17C303,-17 256,-2 214,28l0,-228l-152,-22l0,768C62,612 84,664 127,702C170,740 226,759 297,759C343,759 383,751 418,735C452,719 478,697 497,668C516,639 525,607 525,570C525,526 513,490 489,462C465,434 431,415 386,405C440,400 486,383 524,354C562,325 581,276 581,207M422,220C422,303 379,344 294,344l-39,0l10,107l24,0C315,451 335,460 350,478C365,495 372,521 372,556C372,587 365,610 352,625C338,640 319,647 295,647C241,647 214,614 214,547l0,-419C242,112 276,104 315,104C347,104 373,114 393,133C412,152 422,181 422,220z" /><glyph unicode="ɓ" horiz-adv-x="597" d="M560,265C560,210 552,162 535,119C518,76 493,43 462,19C430,-5 392,-17 349,-17C320,-17 294,-11 271,1C247,13 227,30 210,51l-8,-51l-140,0l0,578C62,631 80,675 115,709C150,742 200,759 265,759C318,759 366,748 410,725l-43,-101C339,636 311,642 284,642C261,642 245,637 235,626C225,615 220,597 220,572l0,-95C236,499 257,516 282,529C307,542 333,548 360,548C425,548 474,523 509,474C543,425 560,355 560,265M396,265C396,328 389,371 374,396C359,420 338,432 311,432C275,432 245,411 220,370l0,-221C230,133 242,121 257,112C272,103 287,98 304,98C365,98 396,154 396,265z" /><glyph unicode="ʭ" horiz-adv-x="365" d="M30,399l0,165l305,0l0,-165l-94,0l0,84l-117,0l0,-84M30,-1l0,165l305,0l0,-165l-94,0l0,84l-117,0l0,-84z" /><glyph unicode="ʘ" horiz-adv-x="798" d="M764,347C764,276 749,213 718,158C687,103 644,60 589,29C534,-2 470,-17 399,-17C327,-17 263,-2 208,28C153,57 110,100 79,155C48,210 33,274 33,347C33,418 48,481 79,536C110,591 153,633 209,664C264,695 328,710 399,710C471,710 535,695 590,666C645,637 687,595 718,540C749,485 764,420 764,347M188,347C188,261 207,197 244,156C281,114 332,93 399,93C466,93 518,114 555,156C592,197 610,261 610,347C610,432 591,495 553,537C515,579 464,600 399,600C332,600 281,579 244,538C207,496 188,432 188,347M483,347C483,325 475,306 460,291C445,276 425,268 401,268C377,268 357,276 342,291C327,306 319,325 319,347C319,370 327,389 342,404C357,419 377,426 401,426C425,426 445,419 460,404C475,389 483,370 483,347z" /><glyph unicode="ʬ" horiz-adv-x="469" d="M439,667l-61,-267l-104,0l-36,194l-39,-194l-103,0l-65,267l80,0l40,-206l41,206l95,0l38,-207l38,207M439,267l-61,-267l-104,0l-36,194l-39,-194l-103,0l-65,267l80,0l40,-206l41,206l95,0l38,-207l38,207z" /><glyph unicode="ƀ" horiz-adv-x="606" d="M568,265C568,210 560,162 543,119C526,76 501,43 470,19C438,-5 400,-17 357,-17C328,-17 302,-11 279,1C255,13 235,30 218,51l-8,-51l-140,0l0,596l-62,0l0,92l62,0l0,54l158,17l0,-71l132,0l0,-92l-132,0l0,-119C244,499 265,516 290,529C315,542 342,548 371,548C434,548 483,523 517,474C551,424 568,354 568,265M404,265C404,328 397,372 382,396C367,420 346,432 318,432C283,432 253,411 228,370l0,-221C238,133 250,121 265,112C279,103 294,98 311,98C373,98 404,154 404,265z" /><glyph unicode="ƃ" horiz-adv-x="597" d="M560,259C560,206 552,159 535,117C518,75 493,42 462,19C430,-5 392,-17 349,-17C320,-17 294,-11 271,1C247,13 227,30 210,51l-8,-51l-140,0l0,742l376,0l-17,-113l-201,0l0,-164C236,486 257,504 282,517C307,530 333,536 360,536C425,536 474,512 509,463C543,414 560,346 560,259M396,259C396,319 389,361 374,385C359,408 338,420 311,420C275,420 245,399 220,358l0,-209C230,133 242,121 257,112C272,103 287,98 304,98C365,98 396,152 396,259z" /><glyph unicode="c" horiz-adv-x="479" d="M474,483l-68,-94C373,414 339,427 305,427C270,427 243,414 225,388C207,362 198,320 198,262C198,206 207,166 225,143C243,120 269,108 303,108C321,108 337,111 352,117C367,122 384,131 405,144l69,-98C421,4 362,-17 295,-17C241,-17 194,-5 155,18C116,41 85,73 64,115C43,156 32,205 32,261C32,317 43,367 64,410C85,453 116,487 155,512C194,536 240,548 292,548C329,548 362,543 391,532C420,521 448,505 474,483z" /><glyph unicode="ć" horiz-adv-x="479" d="M474,483l-68,-94C373,414 339,427 305,427C270,427 243,414 225,388C207,362 198,320 198,262C198,206 207,166 225,143C243,120 269,108 303,108C321,108 337,111 352,117C367,122 384,131 405,144l69,-98C421,4 362,-17 295,-17C241,-17 194,-5 155,18C116,41 85,73 64,115C43,156 32,205 32,261C32,317 43,367 64,410C85,453 116,487 155,512C194,536 240,548 292,548C329,548 362,543 391,532C420,521 448,505 474,483M363,835l62,-118l-236,-95l-44,81z" /><glyph unicode="č" horiz-adv-x="479" d="M474,483l-68,-94C373,414 339,427 305,427C270,427 243,414 225,388C207,362 198,320 198,262C198,206 207,166 225,143C243,120 269,108 303,108C321,108 337,111 352,117C367,122 384,131 405,144l69,-98C421,4 362,-17 295,-17C241,-17 194,-5 155,18C116,41 85,73 64,115C43,156 32,205 32,261C32,317 43,367 64,410C85,453 116,487 155,512C194,536 240,548 292,548C329,548 362,543 391,532C420,521 448,505 474,483M424,813l56,-65l-141,-137l-96,0l-142,137l57,65l133,-91z" /><glyph unicode="ç" horiz-adv-x="479" d="M323,-16l0,-32C358,-52 385,-62 402,-79C419,-96 427,-119 427,-147C427,-181 414,-209 387,-230C360,-251 323,-262 278,-262C255,-262 234,-259 215,-253C196,-248 179,-241 166,-232l36,73C225,-170 246,-176 266,-176C297,-176 313,-166 313,-146C313,-134 306,-125 291,-120C276,-115 253,-112 221,-112l12,101C170,2 121,32 86,80C50,128 32,188 32,261C32,317 43,367 64,410C85,453 116,487 155,512C194,536 240,548 292,548C329,548 362,543 391,532C420,521 448,505 474,483l-68,-94C373,414 339,427 305,427C270,427 243,414 225,388C207,362 198,320 198,262C198,206 207,166 225,143C243,120 269,108 303,108C321,108 337,111 352,117C367,122 384,131 405,144l69,-98C429,10 378,-11 323,-16z" /><glyph unicode="ĉ" horiz-adv-x="479" d="M474,483l-68,-94C373,414 339,427 305,427C270,427 243,414 225,388C207,362 198,320 198,262C198,206 207,166 225,143C243,120 269,108 303,108C321,108 337,111 352,117C367,122 384,131 405,144l69,-98C421,4 362,-17 295,-17C241,-17 194,-5 155,18C116,41 85,73 64,115C43,156 32,205 32,261C32,317 43,367 64,410C85,453 116,487 155,512C194,536 240,548 292,548C329,548 362,543 391,532C420,521 448,505 474,483M157,620l-56,65l141,137l97,0l141,-137l-56,-65l-133,92z" /><glyph unicode="ɕ" horiz-adv-x="501" d="M495,135C495,86 477,48 441,22C405,-4 359,-17 304,-17C279,-17 256,-15 234,-10l-34,-74l-77,30l34,73C117,40 86,72 65,114C43,156 32,205 32,261C32,317 43,367 64,410C85,453 116,487 155,512C194,536 240,548 292,548C329,548 362,543 391,532C420,521 448,505 474,483l-69,-95C373,414 340,427 305,427C270,427 243,414 225,388C207,362 198,320 198,262C198,214 205,176 219,148C236,186 256,213 279,230C302,247 332,255 367,255C404,255 435,244 459,223C483,202 495,172 495,135M384,139C384,159 374,169 353,169C339,169 327,164 316,154C305,144 294,127 283,102C298,99 311,97 324,97C364,97 384,111 384,139z" /><glyph unicode="ċ" horiz-adv-x="479" d="M474,483l-68,-94C373,414 339,427 305,427C270,427 243,414 225,388C207,362 198,320 198,262C198,206 207,166 225,143C243,120 269,108 303,108C321,108 337,111 352,117C367,122 384,131 405,144l69,-98C421,4 362,-17 295,-17C241,-17 194,-5 155,18C116,41 85,73 64,115C43,156 32,205 32,261C32,317 43,367 64,410C85,453 116,487 155,512C194,536 240,548 292,548C329,548 362,543 391,532C420,521 448,505 474,483M384,721C384,695 375,674 358,657C340,640 317,631 290,631C263,631 240,640 223,657C206,674 197,695 197,721C197,747 206,769 223,786C240,803 263,811 290,811C317,811 340,803 358,786C375,769 384,747 384,721z" /><glyph unicode="ƈ" horiz-adv-x="479" d="M639,721l-46,-98C580,630 569,635 559,638C548,641 537,642 525,642C508,642 495,637 487,628C478,618 474,602 474,581l0,-98l-59,-82C382,418 346,427 307,427C271,427 244,414 226,388C207,362 198,320 198,262C198,206 207,166 225,143C243,120 269,108 303,108C321,108 337,111 352,117C367,122 384,131 405,144l69,-98C421,4 362,-17 295,-17C241,-17 194,-5 155,18C116,41 85,73 64,115C43,156 32,205 32,261C32,316 42,366 63,410C84,453 112,487 149,512C186,536 227,548 273,548C296,548 316,545 334,539l0,49C334,643 348,685 377,715C406,744 448,759 504,759C555,759 600,746 639,721z" /><glyph unicode="ʗ" horiz-adv-x="488" d="M483,483l-65,-91C401,404 385,413 370,419C355,424 339,427 322,427C284,427 255,406 236,365C217,323 207,255 207,160C207,67 216,2 235,-37C254,-76 281,-96 317,-96C334,-96 350,-93 365,-87C379,-82 395,-73 414,-60l69,-98C431,-200 374,-221 312,-221C225,-221 159,-188 112,-122C65,-56 42,38 42,160C42,241 53,310 74,369C95,427 127,471 168,502C209,533 257,548 314,548C379,548 436,526 483,483z" /><glyph unicode="ȼ" horiz-adv-x="479" d="M405,144l69,-98C421,4 362,-17 295,-17C278,-17 262,-16 247,-14l-16,-60l-56,13l16,61C141,19 102,52 74,97C46,142 32,197 32,261C32,317 43,367 64,410C85,453 116,487 155,512C194,536 240,548 292,548C308,548 323,547 337,545l15,56l55,-14l-15,-56C419,522 447,506 474,483l-68,-94C394,398 379,407 361,416l-81,-306C289,109 297,108 303,108C321,108 337,111 352,117C367,122 384,131 405,144M228,139l77,288C270,427 243,414 225,388C207,362 198,320 198,262C198,204 208,163 228,139z" /><glyph unicode="d" horiz-adv-x="600" d="M538,742l0,-742l-140,0l-8,62C353,9 302,-17 239,-17C173,-17 123,8 89,59C54,110 37,179 37,267C37,321 46,369 64,412C82,455 108,488 141,512C174,536 211,548 254,548C305,548 347,531 380,498l0,261M380,159l0,229C367,403 355,415 342,422C329,429 314,433 297,433C268,433 244,419 227,392C210,365 201,323 201,266C201,204 209,161 224,136C239,111 260,99 288,99C325,99 355,119 380,159z" /><glyph unicode="ð" horiz-adv-x="579" d="M542,277C542,222 532,172 511,127C490,82 461,47 422,22C383,-4 336,-17 283,-17C235,-17 192,-7 154,13C116,33 86,62 65,100C43,137 32,182 32,234C32,279 41,320 59,358C77,395 102,425 134,447C165,468 201,479 240,479C293,479 337,463 372,432C363,463 350,491 335,515C319,538 297,561 270,582l-55,-55l-99,46l57,59C141,642 110,649 81,654l32,104C166,749 215,736 259,720l73,78l80,-71l-55,-57C423,623 470,568 499,504C528,440 542,364 542,277M381,256l-1,71C354,355 322,369 283,369C223,369 193,325 193,237C193,190 201,155 217,132C233,109 256,98 285,98C318,98 342,111 358,137C373,163 381,203 381,256z" /><glyph unicode="ȸ" horiz-adv-x="875" d="M838,265C838,211 830,163 813,120C796,77 773,43 743,19C712,-5 677,-17 637,-17C610,-17 586,-10 564,3C542,16 524,35 509,59l-9,-59l-122,0l-8,61C353,38 333,19 309,5C285,-10 258,-17 229,-17C168,-17 120,9 87,60C54,111 37,180 37,267C37,321 46,369 63,412C80,455 103,488 134,512C165,536 200,548 240,548C263,548 284,543 305,532C326,521 344,505 360,484l0,258l158,17l0,-283C534,499 554,516 577,529C600,542 626,548 655,548C712,548 757,523 790,473C822,423 838,354 838,265M360,158l0,224C337,416 312,433 283,433C258,433 239,419 224,392C209,365 201,323 201,266C201,155 227,99 279,99C308,99 335,119 360,158M674,265C674,328 667,371 654,396C641,420 622,432 599,432C570,432 543,413 518,376l0,-219C539,118 565,98 595,98C618,98 637,111 652,138C667,165 674,207 674,265z" /><glyph unicode="ď" horiz-adv-x="686" d="M538,742l0,-742l-140,0l-8,62C353,9 302,-17 239,-17C173,-17 123,8 89,59C54,110 37,179 37,267C37,321 46,369 64,412C82,455 108,488 141,512C174,536 211,548 254,548C305,548 347,531 380,498l0,261M380,159l0,229C367,403 355,415 342,422C329,429 314,433 297,433C268,433 244,419 227,392C210,365 201,323 201,266C201,204 209,161 224,136C239,111 260,99 288,99C325,99 355,119 380,159M664,527l55,215l-120,17l-23,-219z" /><glyph unicode="ḓ" horiz-adv-x="600" d="M538,742l0,-742l-140,0l-8,62C353,9 302,-17 239,-17C173,-17 123,8 89,59C54,110 37,179 37,267C37,321 46,369 64,412C82,455 108,488 141,512C174,536 211,548 254,548C305,548 347,531 380,498l0,261M380,159l0,229C367,403 355,415 342,422C329,429 314,433 297,433C268,433 244,419 227,392C210,365 201,323 201,266C201,204 209,161 224,136C239,111 260,99 288,99C325,99 355,119 380,159M174,-265l-56,65l141,137l97,0l141,-137l-56,-65l-133,92z" /><glyph unicode="đ" horiz-adv-x="608" d="M600,688l0,-92l-62,0l0,-596l-140,0l-8,62C353,9 302,-17 239,-17C173,-17 123,8 89,59C54,110 37,179 37,267C37,321 46,369 64,412C82,455 108,488 141,512C174,536 211,548 254,548C305,548 347,531 380,498l0,98l-137,0l0,92l137,0l0,71l158,-17l0,-54M380,159l0,229C367,403 355,415 342,422C329,429 314,433 297,433C268,433 244,419 227,392C210,365 201,323 201,266C201,204 209,161 224,136C239,111 260,99 288,99C325,99 355,119 380,159z" /><glyph unicode="ȡ" horiz-adv-x="788" d="M796,131C796,83 778,46 743,21C707,-4 661,-17 604,-17C586,-17 569,-16 554,-13l-31,-71l-78,30l31,66C444,29 420,53 405,82C364,16 308,-17 239,-17C173,-17 123,8 89,59C54,110 37,179 37,267C37,322 46,370 64,413C81,455 107,488 140,512C173,536 212,548 257,548C281,548 304,544 325,535C346,526 364,514 380,498l0,261l158,-17l0,-552C538,171 539,157 542,147C558,182 576,207 597,222C618,237 644,245 675,245C710,245 739,235 762,214C785,193 796,166 796,131M382,161C381,176 380,187 380,194l0,194C367,403 355,415 342,422C329,429 315,433 298,433C268,433 244,420 227,393C210,366 201,323 201,266C201,204 209,161 224,136C239,111 260,99 289,99C308,99 325,104 340,115C355,125 369,140 382,161M686,133C686,142 684,148 679,153C674,158 668,160 659,160C648,160 638,156 631,147C623,138 614,122 603,98C608,97 616,97 627,97C666,97 686,109 686,133z" /><glyph unicode="ḋ" horiz-adv-x="600" d="M538,742l0,-742l-140,0l-8,62C353,9 302,-17 239,-17C173,-17 123,8 89,59C54,110 37,179 37,267C37,321 46,369 64,412C82,455 108,488 141,512C174,536 211,548 254,548C305,548 347,531 380,498l0,261M380,159l0,229C367,403 355,415 342,422C329,429 314,433 297,433C268,433 244,419 227,392C210,365 201,323 201,266C201,204 209,161 224,136C239,111 260,99 288,99C325,99 355,119 380,159M391,896C391,870 382,849 365,832C347,815 324,806 297,806C270,806 247,815 230,832C213,849 204,870 204,896C204,922 213,944 230,961C247,978 270,986 297,986C324,986 347,978 365,961C382,944 391,922 391,896z" /><glyph unicode="ḍ" horiz-adv-x="600" d="M538,742l0,-742l-140,0l-8,62C353,9 302,-17 239,-17C173,-17 123,8 89,59C54,110 37,179 37,267C37,321 46,369 64,412C82,455 108,488 141,512C174,536 211,548 254,548C305,548 347,531 380,498l0,261M380,159l0,229C367,403 355,415 342,422C329,429 314,433 297,433C268,433 244,419 227,392C210,365 201,323 201,266C201,204 209,161 224,136C239,111 260,99 288,99C325,99 355,119 380,159M214,-150C214,-124 223,-102 241,-85C258,-68 281,-60 308,-60C335,-60 358,-68 375,-85C392,-102 401,-124 401,-150C401,-176 392,-197 375,-214C358,-231 335,-240 308,-240C281,-240 258,-231 241,-214C223,-197 214,-176 214,-150z" /><glyph unicode="ƍ" horiz-adv-x="577" d="M491,-68C491,-113 473,-150 437,-179C401,-208 348,-223 277,-223C202,-223 139,-203 86,-162l72,84C175,-90 193,-99 210,-104C227,-110 245,-113 266,-113C291,-113 310,-109 322,-100C334,-91 340,-80 340,-65C340,-54 338,-44 333,-36C328,-29 319,-21 305,-13C290,-5 268,5 239,17C166,47 114,82 81,122C48,162 32,216 32,283C32,336 43,382 64,422C85,462 114,493 153,515C192,537 237,548 289,548C368,548 431,525 477,480C522,434 545,371 545,290C545,242 532,200 506,164C480,127 442,97 392,74C431,53 457,31 471,9C484,-13 491,-39 491,-68M311,112C337,134 356,159 367,186C378,213 383,245 383,284C383,335 375,372 360,396C345,420 321,432 289,432C258,432 235,420 220,396C204,371 196,334 196,283C196,251 199,226 205,207C211,188 222,172 238,158C254,143 278,128 311,112z" /><glyph unicode="ʤ" horiz-adv-x="1019" d="M1002,9C1002,-35 991,-74 970,-109C948,-144 917,-172 877,-192C836,-212 788,-222 733,-222C633,-222 555,-188 498,-119l83,80C605,-61 628,-77 650,-86C672,-96 697,-101 724,-101C760,-101 788,-91 809,-71C829,-51 839,-21 839,19C839,55 829,81 808,97C787,112 756,120 713,120l-92,0l0,92l171,201l-254,0l0,-413l-140,0l-8,62C353,9 302,-17 239,-17C173,-17 123,8 89,59C54,110 37,179 37,267C37,321 46,369 64,412C82,455 108,488 141,512C174,536 211,548 254,548C305,548 347,531 380,498l0,261l158,-17l0,-211l432,0l0,-108l-184,-210C856,208 910,189 947,156C984,122 1002,73 1002,9M380,159l0,229C367,403 355,415 342,422C329,429 314,433 297,433C268,433 244,419 227,392C210,365 201,323 201,266C201,204 209,161 224,136C239,111 260,99 288,99C325,99 355,119 380,159z" /><glyph unicode="ɗ" horiz-adv-x="600" d="M703,721l-46,-98C644,630 633,635 623,638C613,641 602,642 590,642C573,642 560,637 551,628C542,618 538,602 538,581l0,-581l-140,0l-8,62C353,9 302,-17 239,-17C173,-17 123,8 89,59C54,110 37,179 37,267C37,322 46,370 64,413C81,455 107,488 140,512C173,536 212,548 257,548C281,548 304,544 325,535C346,526 364,514 380,498l0,78C380,631 396,676 429,709C462,742 508,759 568,759C619,759 664,746 703,721M380,159l0,229C367,403 355,415 342,422C329,429 315,433 298,433C268,433 244,420 227,393C210,366 201,323 201,266C201,204 209,161 224,136C239,111 260,99 289,99C325,99 355,119 380,159z" /><glyph unicode="ḏ" horiz-adv-x="600" d="M538,742l0,-742l-140,0l-8,62C353,9 302,-17 239,-17C173,-17 123,8 89,59C54,110 37,179 37,267C37,321 46,369 64,412C82,455 108,488 141,512C174,536 211,548 254,548C305,548 347,531 380,498l0,261M380,159l0,229C367,403 355,415 342,422C329,429 314,433 297,433C268,433 244,419 227,392C210,365 201,323 201,266C201,204 209,161 224,136C239,111 260,99 288,99C325,99 355,119 380,159M460,-191l-305,0l0,110l305,0z" /><glyph unicode="ɖ" horiz-adv-x="600" d="M718,-179C680,-208 633,-222 576,-222C516,-222 468,-206 433,-173C398,-140 380,-93 380,-31l0,80C344,5 297,-17 239,-17C173,-17 123,8 89,59C54,110 37,179 37,267C37,322 46,370 64,413C81,455 107,488 140,512C173,536 212,548 257,548C281,548 304,544 325,535C346,526 364,514 380,498l0,261l158,-17l0,-788C538,-66 543,-81 553,-91C563,-102 577,-107 595,-107C608,-107 620,-105 629,-102C638,-99 650,-94 665,-87M380,159l0,229C367,403 355,415 342,422C329,429 315,433 298,433C268,433 244,420 227,393C210,366 201,323 201,266C201,204 209,161 224,136C239,111 260,99 289,99C325,99 355,119 380,159z" /><glyph unicode="ƌ" horiz-adv-x="600" d="M538,0l-140,0l-8,62C353,9 302,-17 239,-17C173,-17 123,8 89,58C54,107 37,175 37,260C37,313 46,360 64,402C81,444 107,477 140,501C173,524 212,536 257,536C281,536 304,532 325,523C346,514 364,501 380,485l0,144l-209,0l0,113l367,0M380,159l0,217C367,391 355,403 342,410C329,417 315,421 298,421C268,421 244,408 227,381C210,354 201,314 201,260C201,201 209,159 224,135C239,111 261,99 289,99C325,99 355,119 380,159z" /><glyph unicode="ǳ" horiz-adv-x="1059" d="M538,742l0,-742l-140,0l-8,62C353,9 302,-17 239,-17C173,-17 123,8 89,59C54,110 37,179 37,267C37,321 46,369 64,412C82,455 108,488 141,512C174,536 211,548 254,548C305,548 347,531 380,498l0,261M380,159l0,229C367,403 355,415 342,422C329,429 314,433 297,433C268,433 244,419 227,392C210,365 201,323 201,266C201,204 209,161 224,136C239,111 260,99 288,99C325,99 355,119 380,159M1036,531l0,-111l-240,-300l245,0l-14,-120l-414,0l0,112l241,300l-220,0l0,119z" /><glyph unicode="ʣ" horiz-adv-x="982" d="M964,120l-15,-120l-551,0l-8,62C353,9 302,-17 239,-17C173,-17 123,8 89,59C54,110 37,179 37,267C37,321 46,369 64,412C82,455 108,488 141,512C174,536 211,548 254,548C305,548 347,531 380,498l0,261l158,-17l0,-211l421,0l0,-111l-249,-300M380,159l0,229C367,403 355,415 342,422C329,429 314,433 297,433C268,433 244,419 227,392C210,365 201,323 201,266C201,204 209,161 224,136C239,111 260,99 288,99C325,99 355,119 380,159M538,412l0,-299l247,299z" /><glyph unicode="ǆ" horiz-adv-x="1059" d="M538,742l0,-742l-140,0l-8,62C353,9 302,-17 239,-17C173,-17 123,8 89,59C54,110 37,179 37,267C37,321 46,369 64,412C82,455 108,488 141,512C174,536 211,548 254,548C305,548 347,531 380,498l0,261M380,159l0,229C367,403 355,415 342,422C329,429 314,433 297,433C268,433 244,419 227,392C210,365 201,323 201,266C201,204 209,161 224,136C239,111 260,99 288,99C325,99 355,119 380,159M1036,531l0,-111l-240,-300l245,0l-14,-120l-414,0l0,112l241,300l-220,0l0,119M966,813l56,-65l-141,-137l-96,0l-142,137l57,65l133,-91z" /><glyph unicode="ʥ" horiz-adv-x="1066" d="M1083,148C1083,99 1066,62 1031,37C996,12 943,-1 872,0C869,-23 867,-54 867,-93l0,-35l-91,0C776,-81 778,-38 782,0l-384,0l-8,62C353,9 302,-17 239,-17C173,-17 123,8 89,59C54,110 37,179 37,267C37,321 46,369 64,412C82,455 108,488 141,512C174,536 211,548 254,548C305,548 347,531 380,498l0,261l158,-17l0,-211l420,0l0,-105l-252,-306l93,0C812,171 833,209 860,232C887,255 920,266 959,266C995,266 1025,256 1048,235C1071,214 1083,185 1083,148M380,159l0,229C367,403 355,415 342,422C329,429 314,433 297,433C268,433 244,419 227,392C210,365 201,323 201,266C201,204 209,161 224,136C239,111 260,99 288,99C325,99 355,119 380,159M538,412l0,-296l245,296M974,156C974,174 965,183 946,183C919,183 900,162 890,120l5,0C923,120 943,123 956,128C968,133 974,143 974,156M877,33l0,-1l-1,-2z" /><glyph unicode="e" horiz-adv-x="552" d="M522,219l-329,0C198,174 211,143 231,125C251,107 279,98 314,98C335,98 356,102 376,110C396,117 418,129 441,145l65,-88C444,8 375,-17 299,-17C213,-17 147,8 101,59C55,110 32,178 32,263C32,317 42,366 61,409C80,452 109,486 146,511C183,536 228,548 280,548C357,548 417,524 460,476C503,428 525,361 525,276C525,254 524,235 522,219M370,321C369,402 340,443 284,443C257,443 236,433 221,413C206,393 196,360 193,314l177,0z" /><glyph unicode="é" horiz-adv-x="552" d="M522,219l-329,0C198,174 211,143 231,125C251,107 279,98 314,98C335,98 356,102 376,110C396,117 418,129 441,145l65,-88C444,8 375,-17 299,-17C213,-17 147,8 101,59C55,110 32,178 32,263C32,317 42,366 61,409C80,452 109,486 146,511C183,536 228,548 280,548C357,548 417,524 460,476C503,428 525,361 525,276C525,254 524,235 522,219M370,321C369,402 340,443 284,443C257,443 236,433 221,413C206,393 196,360 193,314l177,0M355,835l62,-118l-236,-95l-44,81z" /><glyph unicode="ĕ" horiz-adv-x="552" d="M522,219l-329,0C198,174 211,143 231,125C251,107 279,98 314,98C335,98 356,102 376,110C396,117 418,129 441,145l65,-88C444,8 375,-17 299,-17C213,-17 147,8 101,59C55,110 32,178 32,263C32,317 42,366 61,409C80,452 109,486 146,511C183,536 228,548 280,548C357,548 417,524 460,476C503,428 525,361 525,276C525,254 524,235 522,219M370,321C369,402 340,443 284,443C257,443 236,433 221,413C206,393 196,360 193,314l177,0M110,805l87,15C210,768 238,742 282,742C325,742 354,768 368,820l87,-15C451,755 434,714 404,681C373,648 333,632 282,632C231,632 191,648 161,681C131,713 114,754 110,805z" /><glyph unicode="ě" horiz-adv-x="552" d="M522,219l-329,0C198,174 211,143 231,125C251,107 279,98 314,98C335,98 356,102 376,110C396,117 418,129 441,145l65,-88C444,8 375,-17 299,-17C213,-17 147,8 101,59C55,110 32,178 32,263C32,317 42,366 61,409C80,452 109,486 146,511C183,536 228,548 280,548C357,548 417,524 460,476C503,428 525,361 525,276C525,254 524,235 522,219M370,321C369,402 340,443 284,443C257,443 236,433 221,413C206,393 196,360 193,314l177,0M416,813l56,-65l-141,-137l-96,0l-142,137l57,65l133,-91z" /><glyph unicode="ȩ" horiz-adv-x="552" d="M522,219l-329,0C198,174 211,143 231,125C251,107 279,98 314,98C335,98 356,102 376,110C396,117 418,129 441,145l65,-88C455,16 399,-8 337,-15l0,-33C372,-52 399,-62 416,-79C433,-96 441,-119 441,-147C441,-181 428,-209 401,-230C374,-251 337,-262 292,-262C269,-262 248,-259 229,-253C210,-248 193,-241 180,-232l36,73C239,-170 260,-176 280,-176C311,-176 327,-166 327,-146C327,-134 320,-125 305,-120C290,-115 267,-112 235,-112l12,99C177,-3 124,27 87,76C50,125 32,187 32,263C32,317 42,366 61,409C80,452 109,486 146,511C183,536 228,548 280,548C357,548 417,524 460,476C503,428 525,361 525,276C525,254 524,235 522,219M370,321C369,402 340,443 284,443C257,443 236,433 221,413C206,393 196,360 193,314l177,0z" /><glyph unicode="ê" horiz-adv-x="552" d="M522,219l-329,0C198,174 211,143 231,125C251,107 279,98 314,98C335,98 356,102 376,110C396,117 418,129 441,145l65,-88C444,8 375,-17 299,-17C213,-17 147,8 101,59C55,110 32,178 32,263C32,317 42,366 61,409C80,452 109,486 146,511C183,536 228,548 280,548C357,548 417,524 460,476C503,428 525,361 525,276C525,254 524,235 522,219M370,321C369,402 340,443 284,443C257,443 236,433 221,413C206,393 196,360 193,314l177,0M149,620l-56,65l141,137l97,0l141,-137l-56,-65l-133,92z" /><glyph unicode="ế" horiz-adv-x="552" d="M522,219l-329,0C198,174 211,143 231,125C251,107 279,98 314,98C335,98 356,102 376,110C396,117 418,129 441,145l65,-88C444,8 375,-17 299,-17C213,-17 147,8 101,59C55,110 32,178 32,263C32,317 42,366 61,409C80,452 109,486 146,511C183,536 228,548 280,548C357,548 417,524 460,476C503,428 525,361 525,276C525,254 524,235 522,219M370,321C369,402 340,443 284,443C257,443 236,433 221,413C206,393 196,360 193,314l177,0M148,585l-57,65l142,129l96,0l141,-129l-56,-65l-133,84M516,958l86,-84l-158,-141l-60,54z" /><glyph unicode="ệ" horiz-adv-x="552" d="M522,219l-329,0C198,174 211,143 231,125C251,107 279,98 314,98C335,98 356,102 376,110C396,117 418,129 441,145l65,-88C444,8 375,-17 299,-17C213,-17 147,8 101,59C55,110 32,178 32,263C32,317 42,366 61,409C80,452 109,486 146,511C183,536 228,548 280,548C357,548 417,524 460,476C503,428 525,361 525,276C525,254 524,235 522,219M370,321C369,402 340,443 284,443C257,443 236,433 221,413C206,393 196,360 193,314l177,0M149,620l-56,65l141,137l97,0l141,-137l-56,-65l-133,92M200,-150C200,-124 209,-102 227,-85C244,-68 267,-60 294,-60C321,-60 344,-68 361,-85C378,-102 387,-124 387,-150C387,-176 378,-197 361,-214C344,-231 321,-240 294,-240C267,-240 244,-231 227,-214C209,-197 200,-176 200,-150z" /><glyph unicode="ề" horiz-adv-x="552" d="M522,219l-329,0C198,174 211,143 231,125C251,107 279,98 314,98C335,98 356,102 376,110C396,117 418,129 441,145l65,-88C444,8 375,-17 299,-17C213,-17 147,8 101,59C55,110 32,178 32,263C32,317 42,366 61,409C80,452 109,486 146,511C183,536 228,548 280,548C357,548 417,524 460,476C503,428 525,361 525,276C525,254 524,235 522,219M370,321C369,402 340,443 284,443C257,443 236,433 221,413C206,393 196,360 193,314l177,0M148,585l-57,65l142,129l96,0l141,-129l-56,-65l-133,84M48,958l131,-171l-59,-54l-158,141z" /><glyph unicode="ể" horiz-adv-x="552" d="M522,219l-329,0C198,174 211,143 231,125C251,107 279,98 314,98C335,98 356,102 376,110C396,117 418,129 441,145l65,-88C444,8 375,-17 299,-17C213,-17 147,8 101,59C55,110 32,178 32,263C32,317 42,366 61,409C80,452 109,486 146,511C183,536 228,548 280,548C357,548 417,524 460,476C503,428 525,361 525,276C525,254 524,235 522,219M370,321C369,402 340,443 284,443C257,443 236,433 221,413C206,393 196,360 193,314l177,0M148,585l-57,65l142,129l96,0l141,-129l-56,-65l-133,84M386,853C411,854 430,858 441,864C452,869 457,878 457,891C457,901 454,909 447,914C440,919 430,922 417,922C399,922 379,918 357,909l-26,66C361,992 397,1001 440,1001C479,1001 510,992 532,974C553,955 564,931 564,900C564,874 557,853 543,838C528,822 507,811 480,806l0,-52l-94,0z" /><glyph unicode="ễ" horiz-adv-x="552" d="M522,219l-329,0C198,174 211,143 231,125C251,107 279,98 314,98C335,98 356,102 376,110C396,117 418,129 441,145l65,-88C444,8 375,-17 299,-17C213,-17 147,8 101,59C55,110 32,178 32,263C32,317 42,366 61,409C80,452 109,486 146,511C183,536 228,548 280,548C357,548 417,524 460,476C503,428 525,361 525,276C525,254 524,235 522,219M370,321C369,402 340,443 284,443C257,443 236,433 221,413C206,393 196,360 193,314l177,0M148,581l-57,65l142,129l96,0l141,-129l-56,-65l-133,84M265,827C256,833 249,837 243,840C236,843 230,844 224,844C213,844 203,841 196,834C188,827 180,817 171,802l-79,36C105,871 123,897 146,918C168,939 193,949 221,949C236,949 250,947 261,943C272,938 284,932 297,923C306,917 314,913 320,910C325,907 331,906 337,906C348,906 357,909 365,916C372,923 380,933 389,948l79,-37C454,878 436,851 414,831C391,811 366,801 338,801C323,801 311,803 300,808C289,813 277,819 265,827z" /><glyph unicode="ȅ" horiz-adv-x="552" d="M522,219l-329,0C198,174 211,143 231,125C251,107 279,98 314,98C335,98 356,102 376,110C396,117 418,129 441,145l65,-88C444,8 375,-17 299,-17C213,-17 147,8 101,59C55,110 32,178 32,263C32,317 42,366 61,409C80,452 109,486 146,511C183,536 228,548 280,548C357,548 417,524 460,476C503,428 525,361 525,276C525,254 524,235 522,219M370,321C369,402 340,443 284,443C257,443 236,433 221,413C206,393 196,360 193,314l177,0M164,860l97,-197l-81,-38l-122,182M340,860l88,-197l-83,-33l-113,180z" /><glyph unicode="ë" horiz-adv-x="552" d="M522,219l-329,0C198,174 211,143 231,125C251,107 279,98 314,98C335,98 356,102 376,110C396,117 418,129 441,145l65,-88C444,8 375,-17 299,-17C213,-17 147,8 101,59C55,110 32,178 32,263C32,317 42,366 61,409C80,452 109,486 146,511C183,536 228,548 280,548C357,548 417,524 460,476C503,428 525,361 525,276C525,254 524,235 522,219M370,321C369,402 340,443 284,443C257,443 236,433 221,413C206,393 196,360 193,314l177,0M248,720C248,698 240,679 225,664C209,649 190,641 167,641C144,641 125,649 110,664C94,679 86,698 86,720C86,742 94,761 110,776C125,791 144,799 167,799C190,799 209,791 225,776C240,761 248,742 248,720M479,720C479,698 471,679 456,664C441,649 421,641 398,641C376,641 357,649 342,664C326,679 318,698 318,720C318,742 326,761 342,776C357,791 376,799 398,799C421,799 441,791 456,776C471,761 479,742 479,720z" /><glyph unicode="ė" horiz-adv-x="552" d="M522,219l-329,0C198,174 211,143 231,125C251,107 279,98 314,98C335,98 356,102 376,110C396,117 418,129 441,145l65,-88C444,8 375,-17 299,-17C213,-17 147,8 101,59C55,110 32,178 32,263C32,317 42,366 61,409C80,452 109,486 146,511C183,536 228,548 280,548C357,548 417,524 460,476C503,428 525,361 525,276C525,254 524,235 522,219M370,321C369,402 340,443 284,443C257,443 236,433 221,413C206,393 196,360 193,314l177,0M376,721C376,695 367,674 350,657C332,640 309,631 282,631C255,631 232,640 215,657C198,674 189,695 189,721C189,747 198,769 215,786C232,803 255,811 282,811C309,811 332,803 350,786C367,769 376,747 376,721z" /><glyph unicode="ẹ" horiz-adv-x="552" d="M522,219l-329,0C198,174 211,143 231,125C251,107 279,98 314,98C335,98 356,102 376,110C396,117 418,129 441,145l65,-88C444,8 375,-17 299,-17C213,-17 147,8 101,59C55,110 32,178 32,263C32,317 42,366 61,409C80,452 109,486 146,511C183,536 228,548 280,548C357,548 417,524 460,476C503,428 525,361 525,276C525,254 524,235 522,219M370,321C369,402 340,443 284,443C257,443 236,433 221,413C206,393 196,360 193,314l177,0M200,-150C200,-124 209,-102 227,-85C244,-68 267,-60 294,-60C321,-60 344,-68 361,-85C378,-102 387,-124 387,-150C387,-176 378,-197 361,-214C344,-231 321,-240 294,-240C267,-240 244,-231 227,-214C209,-197 200,-176 200,-150z" /><glyph unicode="è" horiz-adv-x="552" d="M522,219l-329,0C198,174 211,143 231,125C251,107 279,98 314,98C335,98 356,102 376,110C396,117 418,129 441,145l65,-88C444,8 375,-17 299,-17C213,-17 147,8 101,59C55,110 32,178 32,263C32,317 42,366 61,409C80,452 109,486 146,511C183,536 228,548 280,548C357,548 417,524 460,476C503,428 525,361 525,276C525,254 524,235 522,219M370,321C369,402 340,443 284,443C257,443 236,433 221,413C206,393 196,360 193,314l177,0M215,835l218,-132l-44,-81l-236,95z" /><glyph unicode="ẻ" horiz-adv-x="552" d="M522,219l-329,0C198,174 211,143 231,125C251,107 279,98 314,98C335,98 356,102 376,110C396,117 418,129 441,145l65,-88C444,8 375,-17 299,-17C213,-17 147,8 101,59C55,110 32,178 32,263C32,317 42,366 61,409C80,452 109,486 146,511C183,536 228,548 280,548C357,548 417,524 460,476C503,428 525,361 525,276C525,254 524,235 522,219M370,321C369,402 340,443 284,443C257,443 236,433 221,413C206,393 196,360 193,314l177,0M235,704C260,705 279,709 290,715C301,720 306,729 306,742C306,752 303,760 296,765C289,770 279,773 266,773C248,773 228,769 206,760l-26,66C210,843 246,852 289,852C328,852 359,843 381,825C402,806 413,782 413,751C413,725 406,704 392,689C377,673 356,662 329,657l0,-52l-94,0z" /><glyph unicode="ȇ" horiz-adv-x="552" d="M522,219l-329,0C198,174 211,143 231,125C251,107 279,98 314,98C335,98 356,102 376,110C396,117 418,129 441,145l65,-88C444,8 375,-17 299,-17C213,-17 147,8 101,59C55,110 32,178 32,263C32,317 42,366 61,409C80,452 109,486 146,511C183,536 228,548 280,548C357,548 417,524 460,476C503,428 525,361 525,276C525,254 524,235 522,219M370,321C369,402 340,443 284,443C257,443 236,433 221,413C206,393 196,360 193,314l177,0M455,617l-87,-15C354,654 325,680 282,680C238,680 210,654 197,602l-87,15C114,668 131,709 161,742C191,774 231,790 282,790C333,790 373,774 404,741C434,708 451,667 455,617z" /><glyph unicode="ē" horiz-adv-x="552" d="M522,219l-329,0C198,174 211,143 231,125C251,107 279,98 314,98C335,98 356,102 376,110C396,117 418,129 441,145l65,-88C444,8 375,-17 299,-17C213,-17 147,8 101,59C55,110 32,178 32,263C32,317 42,366 61,409C80,452 109,486 146,511C183,536 228,548 280,548C357,548 417,524 460,476C503,428 525,361 525,276C525,254 524,235 522,219M370,321C369,402 340,443 284,443C257,443 236,433 221,413C206,393 196,360 193,314l177,0M435,655l-305,0l0,110l305,0z" /><glyph unicode="ę" horiz-adv-x="552" d="M522,219l-329,0C198,174 211,143 231,125C251,107 279,98 314,98C335,98 356,102 376,110C396,117 418,129 441,145l65,-88C472,30 436,10 397,-2C336,-29 306,-59 306,-93C306,-124 324,-139 359,-139C375,-139 395,-136 420,-131l-11,-98C386,-234 363,-237 339,-237C296,-237 260,-226 233,-205C206,-184 192,-155 192,-120C192,-76 215,-41 260,-15C186,-7 130,22 91,71C52,120 32,184 32,263C32,317 42,366 61,409C80,452 109,486 146,511C183,536 228,548 280,548C357,548 417,524 460,476C503,428 525,361 525,276C525,254 524,235 522,219M370,321C369,402 340,443 284,443C257,443 236,433 221,413C206,393 196,360 193,314l177,0z" /><glyph unicode="ɛ" horiz-adv-x="480" d="M462,488l-65,-82C377,417 358,426 341,431C324,436 305,439 284,439C262,439 245,434 232,425C219,415 212,401 212,383C212,365 219,351 232,340C245,329 263,324 287,324l67,0l-16,-102l-58,0C251,222 229,217 216,207C203,196 196,181 196,160C196,140 203,124 218,113C233,102 255,96 284,96C305,96 326,99 347,106C367,112 389,122 412,136l66,-89C451,26 420,11 383,0C346,-11 305,-17 262,-17C193,-17 138,-3 96,26C53,54 32,94 32,147C32,226 79,272 174,283C93,299 52,339 52,402C52,447 71,482 110,509C149,535 200,548 264,548C341,548 407,528 462,488z" /><glyph unicode="ʚ" horiz-adv-x="573" d="M32,153C32,191 44,221 68,242C91,263 127,276 174,283C97,303 58,342 58,400C58,445 78,481 119,508C159,535 211,548 276,548C331,548 379,536 419,513C458,490 489,457 510,415C531,372 541,323 541,266C541,176 518,106 473,57C427,8 361,-17 275,-17C201,-17 142,-2 98,28C54,57 32,99 32,153M383,266C383,326 375,370 358,398C341,425 315,439 280,439C260,439 244,434 232,425C220,415 214,401 214,384C214,365 221,350 235,340C248,329 267,324 292,324l13,0l9,-102l-34,0C251,222 230,218 215,209C200,200 192,184 192,163C192,118 220,96 276,96C316,96 344,109 360,135C375,161 383,205 383,266z" /></font>
</svg>
