<?xml version="1.0" encoding="utf-8"?><svg xmlns="http://www.w3.org/2000/svg" xmlns:xml="http://www.w3.org/XML/1998/namespace" xmlns:xlink="http://www.w3.org/1999/xlink" version="1.1" id="Vrstva_1" x="0px" y="0px" viewBox="0 0 242.6 153.1" xml:space="preserve" style="enable-background: new 0 0 242.6 153.1; border-radius: 8.41px"><style type="text/css"><![CDATA[
	.st0{fill:#FFFFFF;}
	.st1{fill:#E30613;}
	.st2{font-family:'FiraSans-Bold';}
	.st3{font-size:14.9971px;}
	.st4{fill:#3D3D3C;}
	.st5{fill:#AA182C;}
]]></style><font horiz-adv-x="1000"><font-face units-per-em="1000" underline-position="-100" underline-thickness="50" style="font-family: FiraSans-Bold" /><missing-glyph horiz-adv-x="666" d="M543,1050l-420,0l0,-1400l420,0M489,998l0,-1296l-311,0l0,1296M324,451C285,451 231,439 231,412C231,399 240,389 255,389C259,389 263,390 268,392C285,400 299,403 320,403C370,403 381,373 381,334C381,281 362,261 290,257l0,-84C290,158 302,149 315,149C327,149 340,158 340,173l0,45C407,228 435,266 435,336C435,396 410,451 324,451M315,120C295,120 280,105 280,85C280,64 295,48 315,48C335,48 350,64 350,85C350,105 335,120 315,120z" /><glyph unicode="A" horiz-adv-x="590" d="M430,0l174,0l-209,693l-199,0l-209,-693l170,0l35,149l203,0M220,268l73,306l73,-306z" /><glyph unicode="Æ" horiz-adv-x="845" d="M582,118l-36,175l220,0l0,115l-244,0l-34,168l270,0l17,117l-526,0l-272,-693l176,0l50,149l215,0l26,-149l368,0l0,118M243,268l102,305l53,-305z" /><glyph unicode="Ǽ" horiz-adv-x="845" d="M623,838l-59,118l-221,-125l40,-80M582,118l-36,175l220,0l0,115l-244,0l-34,168l270,0l17,117l-526,0l-272,-693l176,0l50,149l215,0l26,-149l368,0l0,118M243,268l102,305l53,-305z" /><glyph unicode="Á" horiz-adv-x="590" d="M436,838l-59,118l-221,-125l40,-80M430,0l174,0l-209,693l-199,0l-209,-693l170,0l35,149l202,0M220,268l73,306l73,-306z" /><glyph unicode="Ă" horiz-adv-x="590" d="M295,751C400,751 460,828 468,913l-87,15C368,890 341,860 295,860C249,860 222,890 210,928l-87,-15C131,828 190,751 295,751M430,0l174,0l-209,693l-199,0l-209,-693l170,0l35,149l202,0M220,268l73,306l73,-306z" /><glyph unicode="Â" horiz-adv-x="590" d="M163,755l133,84l133,-84l56,65l-141,129l-96,0l-142,-129M430,0l174,0l-209,693l-199,0l-209,-693l170,0l35,149l203,0M220,268l73,306l73,-306z" /><glyph unicode="Ä" horiz-adv-x="590" d="M178,925C133,925 97,890 97,846C97,802 133,767 178,767C224,767 259,802 259,846C259,890 224,925 178,925M409,925C365,925 329,890 329,846C329,802 365,767 409,767C456,767 490,802 490,846C490,890 456,925 409,925M430,0l174,0l-209,693l-199,0l-209,-693l170,0l35,149l203,0M220,268l73,306l73,-306z" /><glyph unicode="À" horiz-adv-x="590" d="M211,956l-59,-118l240,-87l40,80M430,0l174,0l-209,693l-199,0l-209,-693l170,0l35,149l203,0M220,268l73,306l73,-306z" /><glyph unicode="Α" horiz-adv-x="590" d="M430,0l174,0l-209,693l-199,0l-209,-693l170,0l35,149l203,0M220,268l73,306l73,-306z" /><glyph unicode="Ά" horiz-adv-x="691" d="M77,705l7,-240l101,0l46,228M531,0l173,0l-208,693l-199,0l-210,-693l170,0l36,149l202,0M321,268l73,306l73,-306z" /><glyph unicode="Ā" horiz-adv-x="590" d="M448,781l0,110l-305,0l0,-110M430,0l174,0l-209,693l-199,0l-209,-693l170,0l35,149l203,0M220,268l73,306l73,-306z" /><glyph unicode="Ą" horiz-adv-x="590" d="M521,0l83,0l-209,693l-199,0l-209,-693l170,0l35,149l203,0l29,-123C341,-8 289,-55 289,-129C289,-201 351,-246 436,-246C462,-246 484,-243 506,-238l11,98C494,-145 475,-148 456,-148C420,-148 403,-132 403,-102C403,-74 422,-37 521,0M220,268l73,306l73,-306z" /><glyph unicode="Å" horiz-adv-x="590" d="M296,993C210,993 157,933 157,862C157,791 210,731 296,731C382,731 435,791 435,862C435,933 382,993 296,993M296,912C323,912 341,895 341,862C341,829 322,812 296,812C269,812 251,829 251,862C251,895 269,912 296,912M430,0l174,0l-209,693l-199,0l-209,-693l170,0l35,149l203,0M220,268l73,306l73,-306z" /><glyph unicode="Ǻ" horiz-adv-x="590" d="M378,1189l-221,-125l40,-81l240,87M295,982C209,982 156,922 156,852C156,781 209,720 295,720C381,720 434,781 434,852C434,922 381,982 295,982M295,901C322,901 340,885 340,852C340,818 321,802 295,802C268,802 250,818 250,852C250,885 268,901 295,901M430,0l174,0l-209,693l-199,0l-209,-693l170,0l35,149l203,0M220,268l73,306l73,-306z" /><glyph unicode="Ã" horiz-adv-x="590" d="M354,761C413,761 458,811 484,878l-79,39C389,888 375,873 353,873C337,873 325,881 307,894C286,908 268,918 237,918C177,918 133,864 108,800l79,-38C203,790 216,806 240,806C257,806 269,797 287,784C307,769 326,761 354,761M430,0l174,0l-209,693l-199,0l-209,-693l170,0l35,149l203,0M220,268l73,306l73,-306z" /><glyph unicode="B" horiz-adv-x="617" d="M434,367C498,382 561,428 561,516C561,646 447,693 261,693l-196,0l0,-693l223,0C462,0 590,44 590,202C590,314 511,352 434,367M277,577C356,577 394,558 394,500C394,442 358,416 290,416l-61,0l0,161M289,119l-60,0l0,188l72,0C372,307 421,281 421,211C421,135 366,119 289,119z" /><glyph unicode="Β" horiz-adv-x="617" d="M434,367C498,382 561,428 561,516C561,646 447,693 261,693l-196,0l0,-693l223,0C462,0 590,44 590,202C590,314 511,352 434,367M277,577C356,577 394,558 394,500C394,442 358,416 290,416l-61,0l0,161M289,119l-60,0l0,188l72,0C372,307 421,281 421,211C421,135 366,119 289,119z" /><glyph unicode="C" horiz-adv-x="575" d="M348,710C168,710 33,580 33,348C33,111 160,-17 350,-17C446,-17 521,26 567,72l-73,94C453,135 413,110 358,110C266,110 205,181 205,348C205,518 267,589 356,589C403,589 442,571 481,541l78,93C501,683 438,710 348,710z" /><glyph unicode=" " horiz-adv-x="237" /><glyph unicode="Ć" horiz-adv-x="575" d="M435,956l-221,-125l40,-80l240,87M348,710C168,710 33,580 33,348C33,111 160,-17 350,-17C446,-17 521,26 567,72l-73,94C453,135 413,110 358,110C266,110 205,181 205,348C205,518 267,589 356,589C403,589 442,571 481,541l78,93C501,683 438,710 348,710z" /><glyph unicode="Č" horiz-adv-x="575" d="M487,944l-133,-84l-133,84l-57,-65l142,-129l96,0l141,129M348,710C168,710 33,580 33,348C33,111 160,-17 350,-17C446,-17 521,26 567,72l-73,94C453,135 413,110 358,110C266,110 205,181 205,348C205,518 267,589 356,589C403,589 442,571 481,541l78,93C501,683 438,710 348,710z" /><glyph unicode="Ç" horiz-adv-x="575" d="M383,-48l0,33C463,-7 526,31 567,72l-73,94C453,135 413,110 358,110C266,110 205,181 205,348C205,518 267,589 356,589C403,589 442,571 481,541l78,93C501,683 438,710 348,710C168,710 33,580 33,348C33,136 135,11 293,-13l-12,-99C345,-112 373,-122 373,-146C373,-168 354,-176 326,-176C301,-176 282,-169 262,-159l-36,-73C251,-249 291,-262 338,-262C429,-262 487,-215 487,-147C487,-93 455,-56 383,-48z" /><glyph unicode="Ĉ" horiz-adv-x="575" d="M221,755l133,84l133,-84l56,65l-141,129l-96,0l-142,-129M348,710C168,710 33,580 33,348C33,111 160,-17 350,-17C446,-17 521,26 567,72l-73,94C453,135 413,110 358,110C266,110 205,181 205,348C205,518 267,589 356,589C403,589 442,571 481,541l78,93C501,683 438,710 348,710z" /><glyph unicode="Ċ" horiz-adv-x="575" d="M353,937C298,937 260,898 260,847C260,796 298,757 353,757C408,757 447,796 447,847C447,898 408,937 353,937M348,710C168,710 33,580 33,348C33,111 160,-17 350,-17C446,-17 521,26 567,72l-73,94C453,135 413,110 358,110C266,110 205,181 205,348C205,518 267,589 356,589C403,589 442,571 481,541l78,93C501,683 438,710 348,710z" /><glyph unicode="Χ" horiz-adv-x="581" d="M385,374l183,319l-174,0l-105,-222l-100,222l-178,0l179,-325l-194,-368l174,0l117,264l119,-264l179,0z" /><glyph unicode="D" horiz-adv-x="651" d="M258,693l-193,0l0,-693l208,0C450,0 618,71 618,350C618,636 443,693 258,693M281,574C377,574 448,536 448,350C448,166 382,119 283,119l-54,0l0,455z" /><glyph unicode="Ď" horiz-adv-x="651" d="M429,944l-133,-84l-133,84l-57,-65l142,-129l96,0l141,129M258,693l-193,0l0,-693l208,0C450,0 618,71 618,350C618,636 443,693 258,693M281,574C377,574 448,536 448,350C448,166 382,119 283,119l-54,0l0,455z" /><glyph unicode="Đ" horiz-adv-x="665" d="M272,693l-194,0l0,-291l-64,0l0,-98l64,0l0,-304l209,0C464,0 632,71 632,350C632,636 457,693 272,693M297,119l-55,0l0,185l135,0l0,98l-135,0l0,172l53,0C391,574 462,536 462,350C462,166 396,119 297,119z" /><glyph unicode="E" horiz-adv-x="526" d="M490,693l-425,0l0,-693l425,0l0,118l-261,0l0,177l213,0l0,115l-213,0l0,166l244,0z" /><glyph unicode="É" horiz-adv-x="526" d="M360,956l-221,-125l40,-80l240,87M490,693l-425,0l0,-693l425,0l0,118l-261,0l0,177l213,0l0,115l-213,0l0,166l244,0z" /><glyph unicode="Ĕ" horiz-adv-x="526" d="M278,751C383,751 443,828 451,913l-87,15C351,890 324,860 278,860C232,860 205,890 193,928l-87,-15C114,828 173,751 278,751M490,693l-425,0l0,-693l425,0l0,118l-261,0l0,177l213,0l0,115l-213,0l0,166l244,0z" /><glyph unicode="Ě" horiz-adv-x="526" d="M412,944l-133,-84l-133,84l-57,-65l142,-129l96,0l141,129M490,693l-425,0l0,-693l425,0l0,118l-261,0l0,177l213,0l0,115l-213,0l0,166l244,0z" /><glyph unicode="Ê" horiz-adv-x="526" d="M146,755l133,84l133,-84l56,65l-141,129l-96,0l-142,-129M490,693l-425,0l0,-693l425,0l0,118l-261,0l0,177l213,0l0,115l-213,0l0,166l244,0z" /><glyph unicode="Ë" horiz-adv-x="526" d="M161,925C116,925 80,890 80,846C80,802 116,767 161,767C207,767 242,802 242,846C242,890 207,925 161,925M392,925C348,925 312,890 312,846C312,802 348,767 392,767C439,767 473,802 473,846C473,890 439,925 392,925M490,693l-425,0l0,-693l425,0l0,118l-261,0l0,177l213,0l0,115l-213,0l0,166l244,0z" /><glyph unicode="Ė" horiz-adv-x="526" d="M278,937C223,937 185,898 185,847C185,796 223,757 278,757C333,757 372,796 372,847C372,898 333,937 278,937M490,693l-425,0l0,-693l425,0l0,118l-261,0l0,177l213,0l0,115l-213,0l0,166l244,0z" /><glyph unicode="È" horiz-adv-x="526" d="M194,956l-59,-118l240,-87l40,80M490,693l-425,0l0,-693l425,0l0,118l-261,0l0,177l213,0l0,115l-213,0l0,166l244,0z" /><glyph unicode="Ē" horiz-adv-x="526" d="M431,781l0,110l-305,0l0,-110M490,693l-425,0l0,-693l425,0l0,118l-261,0l0,177l213,0l0,115l-213,0l0,166l244,0z" /><glyph unicode="Ŋ" horiz-adv-x="663" d="M452,693l0,-280C452,302 465,211 474,155l-205,538l-204,0l0,-693l146,0l0,254C211,382 198,474 190,537l200,-537l44,0l0,-42C434,-83 414,-103 380,-103C350,-103 334,-94 310,-82l-53,-97C288,-203 333,-222 398,-222C518,-222 599,-159 599,-31l0,724z" /><glyph unicode="Ę" horiz-adv-x="526" d="M229,295l213,0l0,115l-213,0l0,166l244,0l17,117l-425,0l0,-693l235,0C248,-31 218,-73 218,-129C218,-201 280,-246 365,-246C391,-246 413,-243 435,-238l11,98C423,-145 404,-148 385,-148C349,-148 332,-132 332,-102C332,-74 351,-37 450,0l40,0l0,118l-261,0z" /><glyph unicode="Ε" horiz-adv-x="526" d="M490,693l-425,0l0,-693l425,0l0,118l-261,0l0,177l213,0l0,115l-213,0l0,166l244,0z" /><glyph unicode="Έ" horiz-adv-x="719" d="M73,705l7,-240l100,0l46,228M683,693l-426,0l0,-693l426,0l0,118l-262,0l0,177l214,0l0,115l-214,0l0,166l244,0z" /><glyph unicode="Η" horiz-adv-x="666" d="M437,0l164,0l0,693l-164,0l0,-268l-208,0l0,268l-164,0l0,-693l164,0l0,297l208,0z" /><glyph unicode="Ή" horiz-adv-x="859" d="M73,705l7,-240l100,0l46,228M630,0l164,0l0,693l-164,0l0,-268l-209,0l0,268l-164,0l0,-693l164,0l0,297l209,0z" /><glyph unicode="Ð" horiz-adv-x="665" d="M272,693l-194,0l0,-291l-64,0l0,-98l64,0l0,-304l209,0C464,0 632,71 632,350C632,636 457,693 272,693M297,119l-55,0l0,185l135,0l0,98l-135,0l0,172l53,0C391,574 462,536 462,350C462,166 396,119 297,119z" /><glyph unicode="€" horiz-adv-x="591" d="M255,220l187,0l21,82l-213,0l0,71l228,0l22,83l-243,0C281,538 333,576 397,576C446,576 485,563 526,536l56,96C533,665 473,690 391,690C250,690 136,602 97,456l-66,0l-22,-83l82,0l0,-71l-60,0l-22,-82l86,0C127,71 230,-17 386,-17C447,-17 494,-4 547,20l0,121C504,116 455,98 401,98C324,98 275,135 255,220z" /><glyph unicode="F" horiz-adv-x="487" d="M65,0l164,0l0,275l202,0l0,117l-202,0l0,184l232,0l17,117l-413,0z" /><glyph unicode="G" horiz-adv-x="645" d="M365,710C179,710 33,582 33,347C33,110 139,-17 351,-17C438,-17 528,10 600,56l0,343l-265,0l16,-116l90,0l0,-157C412,110 381,103 347,103C251,103 203,165 203,347C203,519 275,591 372,591C428,591 466,574 513,538l83,87C539,675 466,710 365,710z" /><glyph unicode="Γ" horiz-adv-x="510" d="M509,693l-444,0l0,-693l164,0l0,564l262,0z" /><glyph unicode="Ğ" horiz-adv-x="645" d="M351,751C456,751 516,828 524,913l-87,15C424,890 397,860 351,860C305,860 278,890 266,928l-87,-15C187,828 246,751 351,751M365,710C179,710 33,582 33,347C33,110 139,-17 351,-17C438,-17 528,10 600,56l0,343l-265,0l16,-116l90,0l0,-157C412,110 381,103 347,103C251,103 203,165 203,347C203,519 275,591 372,591C428,591 466,574 513,538l83,87C539,675 466,710 365,710z" /><glyph unicode="Ǧ" horiz-adv-x="645" d="M485,944l-133,-84l-133,84l-57,-65l142,-129l96,0l141,129M365,710C179,710 33,582 33,347C33,110 139,-17 351,-17C438,-17 528,10 600,56l0,343l-265,0l16,-116l90,0l0,-157C412,110 381,103 347,103C251,103 203,165 203,347C203,519 275,591 372,591C428,591 466,574 513,538l83,87C539,675 466,710 365,710z" /><glyph unicode="Ĝ" horiz-adv-x="645" d="M219,755l133,84l133,-84l56,65l-141,129l-96,0l-142,-129M365,710C179,710 33,582 33,347C33,110 139,-17 351,-17C438,-17 528,10 600,56l0,343l-265,0l16,-116l90,0l0,-157C412,110 381,103 347,103C251,103 203,165 203,347C203,519 275,591 372,591C428,591 466,574 513,538l83,87C539,675 466,710 365,710z" /><glyph unicode="Ġ" horiz-adv-x="645" d="M351,937C296,937 258,898 258,847C258,796 296,757 351,757C406,757 445,796 445,847C445,898 406,937 351,937M365,710C179,710 33,582 33,347C33,110 139,-17 351,-17C438,-17 528,10 600,56l0,343l-265,0l16,-116l90,0l0,-157C412,110 381,103 347,103C251,103 203,165 203,347C203,519 275,591 372,591C428,591 466,574 513,538l83,87C539,675 466,710 365,710z" /><glyph unicode="H" horiz-adv-x="666" d="M437,0l164,0l0,693l-164,0l0,-268l-208,0l0,268l-164,0l0,-693l164,0l0,297l208,0z" /><glyph unicode="Ħ" horiz-adv-x="677" d="M664,592l-57,0l0,101l-164,0l0,-101l-209,0l0,101l-164,0l0,-101l-57,0l0,-92l57,0l0,-500l164,0l0,297l209,0l0,-297l164,0l0,500l57,0M443,425l-209,0l0,75l209,0z" /><glyph unicode="Ĥ" horiz-adv-x="666" d="M200,755l133,84l133,-84l56,65l-141,129l-96,0l-142,-129M437,0l164,0l0,693l-164,0l0,-268l-208,0l0,268l-164,0l0,-693l164,0l0,297l208,0z" /><glyph unicode="I" horiz-adv-x="293" d="M229,693l-164,0l0,-693l164,0z" /><glyph unicode="Ĳ" horiz-adv-x="610" d="M229,693l-164,0l0,-693l164,0M549,693l-164,0l0,-582C385,29 372,-18 282,-53l44,-116C443,-131 549,-70 549,105z" /><glyph unicode="Í" horiz-adv-x="293" d="M227,956l-221,-125l40,-80l240,87M229,693l-164,0l0,-693l164,0z" /><glyph unicode="Ĭ" horiz-adv-x="293" d="M146,751C251,751 311,828 319,913l-87,15C219,890 192,860 146,860C100,860 73,890 61,928l-87,-15C-18,828 41,751 146,751M229,693l-164,0l0,-693l164,0z" /><glyph unicode="Î" horiz-adv-x="293" d="M13,755l133,84l133,-84l56,65l-141,129l-96,0l-142,-129M229,693l-164,0l0,-693l164,0z" /><glyph unicode="Ï" horiz-adv-x="293" d="M29,925C-16,925 -52,890 -52,846C-52,802 -16,767 29,767C75,767 110,802 110,846C110,890 75,925 29,925M260,925C216,925 180,890 180,846C180,802 216,767 260,767C307,767 341,802 341,846C341,890 307,925 260,925M229,693l-164,0l0,-693l164,0z" /><glyph unicode="İ" horiz-adv-x="293" d="M146,937C91,937 53,898 53,847C53,796 91,757 146,757C201,757 240,796 240,847C240,898 201,937 146,937M229,693l-164,0l0,-693l164,0z" /><glyph unicode="Ì" horiz-adv-x="293" d="M62,956l-59,-118l240,-87l40,80M229,693l-164,0l0,-693l164,0z" /><glyph unicode="Ī" horiz-adv-x="293" d="M298,781l0,110l-305,0l0,-110M229,693l-164,0l0,-693l164,0z" /><glyph unicode="Į" horiz-adv-x="293" d="M65,693l0,-685C4,-24 -32,-67 -32,-129C-32,-201 30,-246 115,-246C141,-246 163,-243 185,-238l11,98C173,-145 154,-148 135,-148C99,-148 82,-132 82,-102C82,-74 101,-37 200,0l29,0l0,693z" /><glyph unicode="Ι" horiz-adv-x="293" d="M229,693l-164,0l0,-693l164,0z" /><glyph unicode="Ϊ" horiz-adv-x="293" d="M29,925C-16,925 -52,890 -52,846C-52,802 -16,767 29,767C75,767 110,802 110,846C110,890 75,925 29,925M260,925C216,925 180,890 180,846C180,802 216,767 260,767C307,767 341,802 341,846C341,890 307,925 260,925M229,693l-164,0l0,-693l164,0z" /><glyph unicode="Ί" horiz-adv-x="486" d="M73,705l7,-240l100,0l46,228M421,693l-164,0l0,-693l164,0z" /><glyph unicode="Ĩ" horiz-adv-x="293" d="M204,761C263,761 308,811 334,878l-79,39C239,888 225,873 203,873C187,873 175,881 157,894C136,908 118,918 87,918C27,918 -17,864 -42,800l79,-38C53,790 66,806 90,806C107,806 119,797 137,784C157,769 176,761 204,761M229,693l-164,0l0,-693l164,0z" /><glyph unicode="J" horiz-adv-x="317" d="M256,693l-164,0l0,-582C92,29 79,-18 -11,-53l44,-116C150,-131 256,-70 256,105z" /><glyph unicode="Ĵ" horiz-adv-x="317" d="M41,755l133,84l133,-84l56,65l-141,129l-96,0l-142,-129M256,693l-164,0l0,-582C92,29 79,-18 -11,-53l44,-116C150,-131 256,-70 256,105z" /><glyph unicode="K" horiz-adv-x="633" d="M229,693l-164,0l0,-693l164,0M627,693l-173,0l-220,-323l221,-370l190,0l-239,382z" /><glyph unicode="Κ" horiz-adv-x="633" d="M229,693l-164,0l0,-693l164,0M627,693l-173,0l-220,-323l221,-370l190,0l-239,382z" /><glyph unicode="L" horiz-adv-x="513" d="M229,693l-164,0l0,-693l417,0l17,130l-270,0z" /><glyph unicode="Ĺ" horiz-adv-x="513" d="M228,956l-221,-125l40,-80l240,87M229,693l-164,0l0,-693l417,0l17,130l-270,0z" /><glyph unicode="Λ" horiz-adv-x="590" d="M395,693l-199,0l-209,-693l170,0l137,574l136,-574l174,0z" /><glyph unicode="Ľ" horiz-adv-x="513" d="M358,478l-87,13l23,219l119,-17M229,693l-164,0l0,-693l417,0l17,130l-270,0z" /><glyph unicode="Ŀ" horiz-adv-x="513" d="M229,693l-164,0l0,-693l417,0l17,130l-270,0M399,490C344,490 306,451 306,400C306,349 344,310 399,310C454,310 493,349 493,400C493,451 454,490 399,490z" /><glyph unicode="Ł" horiz-adv-x="553" d="M268,130l0,196l182,113l-54,86l-128,-79l0,247l-164,0l0,-349l-96,-59l54,-87l42,26l0,-224l418,0l17,130z" /><glyph unicode="M" horiz-adv-x="786" d="M701,693l-208,0l-97,-470l-104,470l-207,0l-52,-693l160,0l12,269C209,366 209,452 202,554l114,-481l155,0l107,481C573,468 575,368 580,271l12,-271l161,0z" /><glyph unicode="Μ" horiz-adv-x="786" d="M701,693l-208,0l-97,-470l-104,470l-207,0l-52,-693l160,0l12,269C209,366 209,452 202,554l114,-481l155,0l107,481C573,468 575,368 580,271l12,-271l161,0z" /><glyph unicode="N" horiz-adv-x="663" d="M599,693l-147,0l0,-280C452,302 465,211 474,155l-205,538l-204,0l0,-693l146,0l0,254C211,382 198,474 190,537l200,-537l209,0z" /><glyph unicode="Ń" horiz-adv-x="663" d="M417,956l-221,-125l40,-80l240,87M599,693l-147,0l0,-280C452,302 465,211 474,155l-205,538l-204,0l0,-693l146,0l0,254C211,382 198,474 190,537l200,-537l209,0z" /><glyph unicode="Ň" horiz-adv-x="663" d="M470,944l-133,-84l-133,84l-57,-65l142,-129l96,0l141,129M599,693l-147,0l0,-280C452,302 465,211 474,155l-205,538l-204,0l0,-693l146,0l0,254C211,382 198,474 190,537l200,-537l209,0z" /><glyph unicode="Ñ" horiz-adv-x="663" d="M394,761C453,761 498,811 524,878l-79,39C429,888 415,873 393,873C377,873 365,881 347,894C326,908 308,918 277,918C217,918 173,864 148,800l79,-38C243,790 256,806 280,806C297,806 309,797 327,784C347,769 366,761 394,761M599,693l-147,0l0,-280C452,302 465,211 474,155l-205,538l-204,0l0,-693l146,0l0,254C211,382 198,474 190,537l200,-537l209,0z" /><glyph unicode="Ν" horiz-adv-x="663" d="M599,693l-147,0l0,-280C452,302 465,211 474,155l-205,538l-204,0l0,-693l146,0l0,254C211,382 198,474 190,537l200,-537l209,0z" /><glyph unicode="O" horiz-adv-x="691" d="M345,710C150,710 33,573 33,347C33,116 150,-17 345,-17C541,-17 658,120 658,347C658,578 541,710 345,710M345,590C438,590 486,522 486,347C486,171 439,103 345,103C255,103 205,171 205,347C205,522 253,590 345,590z" /><glyph unicode="Œ" horiz-adv-x="905" d="M635,295l186,0l0,115l-187,0C626,473 605,530 570,576l282,0l17,117l-441,0C399,704 365,710 329,710C150,710 33,573 33,347C33,116 150,-17 329,-17C363,-17 396,-11 424,0l445,0l0,118l-303,0C604,166 627,228 635,295M335,103C255,103 205,171 205,347C205,522 253,590 335,590C418,590 466,522 466,347C466,171 419,103 335,103z" /><glyph unicode="Ó" horiz-adv-x="691" d="M426,956l-221,-125l40,-80l240,87M345,710C150,710 33,573 33,347C33,116 150,-17 345,-17C541,-17 658,120 658,347C658,578 541,710 345,710M345,590C438,590 486,522 486,347C486,171 439,103 345,103C255,103 205,171 205,347C205,522 253,590 345,590z" /><glyph unicode="Ŏ" horiz-adv-x="691" d="M345,751C450,751 510,828 518,913l-87,15C418,890 391,860 345,860C299,860 272,890 260,928l-87,-15C181,828 240,751 345,751M345,710C150,710 33,573 33,347C33,116 150,-17 345,-17C541,-17 658,120 658,347C658,578 541,710 345,710M345,590C438,590 486,522 486,347C486,171 439,103 345,103C255,103 205,171 205,347C205,522 253,590 345,590z" /><glyph unicode="Ô" horiz-adv-x="691" d="M212,755l133,84l133,-84l56,65l-141,129l-96,0l-142,-129M345,710C150,710 33,573 33,347C33,116 150,-17 345,-17C541,-17 658,120 658,347C658,578 541,710 345,710M345,590C438,590 486,522 486,347C486,171 439,103 345,103C255,103 205,171 205,347C205,522 253,590 345,590z" /><glyph unicode="Ö" horiz-adv-x="691" d="M228,925C183,925 147,890 147,846C147,802 183,767 228,767C274,767 309,802 309,846C309,890 274,925 228,925M459,925C415,925 379,890 379,846C379,802 415,767 459,767C506,767 540,802 540,846C540,890 506,925 459,925M345,710C150,710 33,573 33,347C33,116 150,-17 345,-17C541,-17 658,120 658,347C658,578 541,710 345,710M345,590C438,590 486,522 486,347C486,171 439,103 345,103C255,103 205,171 205,347C205,522 253,590 345,590z" /><glyph unicode="Ò" horiz-adv-x="691" d="M261,956l-59,-118l240,-87l40,80M345,710C150,710 33,573 33,347C33,116 150,-17 345,-17C541,-17 658,120 658,347C658,578 541,710 345,710M345,590C438,590 486,522 486,347C486,171 439,103 345,103C255,103 205,171 205,347C205,522 253,590 345,590z" /><glyph unicode="Ơ" horiz-adv-x="715" d="M713,685C713,727 704,754 694,773l-102,-15C599,738 605,720 605,690C605,656 591,638 557,634C504,684 432,710 345,710C150,710 33,573 33,347C33,116 150,-17 345,-17C541,-17 658,120 658,347C658,433 642,506 611,563C675,576 713,616 713,685M345,103C255,103 205,171 205,347C205,522 253,590 345,590C438,590 486,522 486,347C486,171 439,103 345,103z" /><glyph unicode="Ő" horiz-adv-x="691" d="M308,956l-96,-178l70,-38l126,159M479,947l-105,-172l67,-42l135,152M345,710C150,710 33,573 33,347C33,116 150,-17 345,-17C541,-17 658,120 658,347C658,578 541,710 345,710M345,590C438,590 486,522 486,347C486,171 439,103 345,103C255,103 205,171 205,347C205,522 253,590 345,590z" /><glyph unicode="Ō" horiz-adv-x="691" d="M497,781l0,110l-305,0l0,-110M345,710C150,710 33,573 33,347C33,116 150,-17 345,-17C541,-17 658,120 658,347C658,578 541,710 345,710M345,590C438,590 486,522 486,347C486,171 439,103 345,103C255,103 205,171 205,347C205,522 253,590 345,590z" /><glyph unicode="Ώ" horiz-adv-x="856" d="M511,710C316,710 199,568 199,377C199,251 244,167 331,119l-111,0l0,-119l253,0l0,112C390,150 370,222 370,377C370,519 419,590 511,590C604,590 652,519 652,378C652,227 635,149 549,112l0,-112l253,0l0,119l-113,0C780,170 823,253 823,378C823,570 708,710 511,710M63,705l7,-240l100,0l46,228z" /><glyph unicode="Ο" horiz-adv-x="691" d="M345,710C150,710 33,573 33,347C33,116 150,-17 345,-17C541,-17 658,120 658,347C658,578 541,710 345,710M345,590C438,590 486,522 486,347C486,171 439,103 345,103C255,103 205,171 205,347C205,522 253,590 345,590z" /><glyph unicode="Ό" horiz-adv-x="838" d="M492,710C297,710 180,573 180,347C180,116 297,-17 492,-17C688,-17 804,120 804,347C804,578 688,710 492,710M63,705l7,-240l100,0l46,228M492,590C585,590 633,522 633,347C633,171 586,103 492,103C401,103 351,171 351,347C351,522 400,590 492,590z" /><glyph unicode="Ø" horiz-adv-x="691" d="M514,667l41,128l-123,33l-37,-121C379,709 362,710 345,710C150,710 33,573 33,347C33,194 84,84 176,27l-40,-129l124,-32l36,120C312,-16 328,-17 345,-17C541,-17 658,120 658,347C658,501 606,611 514,667M345,590C356,590 366,589 375,588l-132,-440C218,184 205,246 205,347C205,522 253,590 345,590M345,103C335,103 325,104 315,105l133,441C473,511 486,449 486,347C486,171 439,103 345,103z" /><glyph unicode="Ǿ" horiz-adv-x="691" d="M484,872l-59,118l-221,-125l40,-80M514,667l41,128l-123,33l-37,-121C379,709 362,710 345,710C150,710 33,573 33,347C33,194 84,84 176,27l-40,-129l124,-32l36,120C312,-16 328,-17 345,-17C541,-17 658,120 658,347C658,501 606,611 514,667M345,590C356,590 366,589 375,588l-132,-440C218,184 205,246 205,347C205,522 253,590 345,590M345,103C335,103 325,104 315,105l133,441C473,511 486,449 486,347C486,171 439,103 345,103z" /><glyph unicode="Õ" horiz-adv-x="691" d="M403,761C462,761 507,811 533,878l-79,39C438,888 424,873 402,873C386,873 374,881 356,894C335,908 317,918 286,918C226,918 182,864 157,800l79,-38C252,790 265,806 289,806C306,806 318,797 336,784C356,769 375,761 403,761M345,710C150,710 33,573 33,347C33,116 150,-17 345,-17C541,-17 658,120 658,347C658,578 541,710 345,710M345,590C438,590 486,522 486,347C486,171 439,103 345,103C255,103 205,171 205,347C205,522 253,590 345,590z" /><glyph unicode="P" horiz-adv-x="600" d="M289,693l-224,0l0,-693l164,0l0,231l75,0C464,231 578,306 578,467C578,619 468,693 289,693M290,349l-61,0l0,227l58,0C368,576 409,541 409,467C409,380 364,349 290,349z" /><glyph unicode="Φ" horiz-adv-x="843" d="M827,349C827,515 698,607 501,616l0,77l-159,0l0,-77C147,608 16,516 16,345C16,177 145,85 342,76l0,-76l159,0l0,76C696,84 827,176 827,349M494,173l0,345C608,510 660,447 660,349C660,250 612,183 494,173M183,345C183,445 231,509 349,518l0,-344C235,182 183,245 183,345z" /><glyph unicode="Π" horiz-adv-x="664" d="M599,693l-534,0l0,-693l164,0l0,567l206,0l0,-567l164,0z" /><glyph unicode="⏻" horiz-adv-x="841" d="M370,742l0,-389l99,0l0,389M686,617l-67,-60C664,505 690,434 690,354C690,187 582,67 420,67C257,67 151,187 151,354C151,434 176,506 221,557l-66,60C90,551 50,459 50,354C50,143 206,-16 420,-16C633,-16 791,143 791,354C791,458 751,550 686,617z" /><glyph unicode="Ψ" horiz-adv-x="728" d="M551,693l0,-267C551,352 517,310 439,296l0,397l-150,0l0,-398C208,309 177,350 177,426l0,267l-158,0l0,-264C19,290 106,203 282,182l0,-182l164,0l0,182C619,204 708,293 708,430l0,263z" /><glyph unicode="Q" horiz-adv-x="690" d="M495,45C580,92 658,179 658,347C658,578 541,710 345,710C150,710 33,573 33,347C33,116 150,-14 335,-14C465,-14 537,-75 601,-147l99,129C644,22 585,45 495,45M205,347C205,522 253,590 345,590C438,590 486,522 486,347C486,171 439,103 345,103C255,103 205,171 205,347z" /><glyph unicode="R" horiz-adv-x="617" d="M435,0l185,0l-176,295C534,336 577,391 577,482C577,626 480,693 292,693l-227,0l0,-693l164,0l0,265l64,0M229,578l59,0C369,578 408,549 408,482C408,409 370,378 298,378l-69,0z" /><glyph unicode="Ŕ" horiz-adv-x="617" d="M441,838l-59,118l-221,-125l40,-80M435,0l185,0l-176,295C534,336 577,391 577,482C577,626 480,693 292,693l-227,0l0,-693l164,0l0,265l64,0M229,578l59,0C369,578 408,549 408,482C408,409 370,378 298,378l-69,0z" /><glyph unicode="Ř" horiz-adv-x="617" d="M349,750l141,129l-56,65l-133,-84l-133,84l-57,-65l142,-129M435,0l185,0l-176,295C534,336 577,391 577,482C577,626 480,693 292,693l-227,0l0,-693l164,0l0,265l64,0M229,578l59,0C369,578 408,549 408,482C408,409 370,378 298,378l-69,0z" /><glyph unicode="Ρ" horiz-adv-x="600" d="M289,693l-224,0l0,-693l164,0l0,231l75,0C464,231 578,306 578,467C578,619 468,693 289,693M290,349l-61,0l0,227l58,0C368,576 409,541 409,467C409,380 364,349 290,349z" /><glyph unicode="S" horiz-adv-x="572" d="M288,710C144,710 38,632 38,510C38,407 95,343 250,295C351,264 377,241 377,190C377,137 335,105 267,105C198,105 143,130 92,173l-83,-91C66,27 152,-17 272,-17C445,-17 547,73 547,202C547,330 472,384 341,426C233,460 207,478 207,522C207,566 243,590 300,590C356,590 404,571 452,532l76,89C467,679 394,710 288,710z" /><glyph unicode="Ś" horiz-adv-x="572" d="M376,956l-221,-125l40,-80l240,87M288,710C144,710 38,632 38,510C38,407 95,343 250,295C351,264 377,241 377,190C377,137 335,105 267,105C198,105 143,130 92,173l-83,-91C66,27 152,-17 272,-17C445,-17 547,73 547,202C547,330 472,384 341,426C233,460 207,478 207,522C207,566 243,590 300,590C356,590 404,571 452,532l76,89C467,679 394,710 288,710z" /><glyph unicode="Š" horiz-adv-x="572" d="M429,944l-133,-84l-133,84l-57,-65l142,-129l96,0l141,129M288,710C144,710 38,632 38,510C38,407 95,343 250,295C351,264 377,241 377,190C377,137 335,105 267,105C198,105 143,130 92,173l-83,-91C66,27 152,-17 272,-17C445,-17 547,73 547,202C547,330 472,384 341,426C233,460 207,478 207,522C207,566 243,590 300,590C356,590 404,571 452,532l76,89C467,679 394,710 288,710z" /><glyph unicode="Ş" horiz-adv-x="572" d="M547,202C547,330 472,384 341,426C233,460 207,478 207,522C207,566 243,590 300,590C356,590 404,571 452,532l76,89C467,679 394,710 288,710C144,710 38,632 38,510C38,407 95,343 250,295C351,264 377,241 377,190C377,137 335,105 267,105C198,105 143,130 92,173l-83,-91C60,33 134,-7 234,-16l-11,-96C287,-112 315,-122 315,-146C315,-168 296,-176 268,-176C243,-176 224,-169 204,-159l-36,-73C193,-249 233,-262 280,-262C371,-262 429,-215 429,-147C429,-93 397,-56 325,-48l0,34C466,3 547,87 547,202z" /><glyph unicode="Ŝ" horiz-adv-x="572" d="M162,755l133,84l133,-84l56,65l-141,129l-96,0l-142,-129M288,710C144,710 38,632 38,510C38,407 95,343 250,295C351,264 377,241 377,190C377,137 335,105 267,105C198,105 143,130 92,173l-83,-91C66,27 152,-17 272,-17C445,-17 547,73 547,202C547,330 472,384 341,426C233,460 207,478 207,522C207,566 243,590 300,590C356,590 404,571 452,532l76,89C467,679 394,710 288,710z" /><glyph unicode="Σ" horiz-adv-x="503" d="M482,693l-461,0l0,-119l192,-234l-192,-221l0,-119l461,0l0,122l-281,0l169,187l0,65l-168,200l280,0z" /><glyph unicode="T" horiz-adv-x="540" d="M539,693l-530,0l0,-126l179,0l0,-567l164,0l0,567l171,0z" /><glyph unicode="Τ" horiz-adv-x="540" d="M539,693l-530,0l0,-126l179,0l0,-567l164,0l0,567l171,0z" /><glyph unicode="Ŧ" horiz-adv-x="540" d="M523,566l16,127l-530,0l0,-127l179,0l0,-177l-115,0l0,-92l115,0l0,-298l164,0l0,298l115,0l0,92l-115,0l0,177z" /><glyph unicode="Ť" horiz-adv-x="540" d="M404,944l-133,-84l-133,84l-57,-65l142,-129l96,0l141,129M539,693l-530,0l0,-126l179,0l0,-567l164,0l0,567l171,0z" /><glyph unicode="Θ" horiz-adv-x="691" d="M345,710C150,710 33,573 33,347C33,116 150,-17 345,-17C541,-17 658,120 658,347C658,578 541,710 345,710M345,590C445,590 495,522 495,347C495,171 445,103 345,103C248,103 196,171 196,347C196,522 247,590 345,590M446,399l-202,0l0,-94l202,0z" /><glyph unicode="Þ" horiz-adv-x="600" d="M289,585l-60,0l0,108l-164,0l0,-693l164,0l0,114l75,0C464,114 578,190 578,356C578,510 468,585 289,585M290,233l-61,0l0,235l58,0C368,468 409,433 409,356C409,264 364,233 290,233z" /><glyph unicode="U" horiz-adv-x="651" d="M596,693l-164,0l0,-456C432,148 400,105 325,105C251,105 219,148 219,237l0,456l-164,0l0,-463C55,84 144,-17 325,-17C506,-17 596,90 596,230z" /><glyph unicode="Ú" horiz-adv-x="651" d="M406,956l-221,-125l40,-80l240,87M596,693l-164,0l0,-456C432,148 400,105 325,105C251,105 219,148 219,237l0,456l-164,0l0,-463C55,84 144,-17 325,-17C506,-17 596,90 596,230z" /><glyph unicode="Ŭ" horiz-adv-x="651" d="M325,751C430,751 490,828 498,913l-87,15C398,890 371,860 325,860C279,860 252,890 240,928l-87,-15C161,828 220,751 325,751M596,693l-164,0l0,-456C432,148 400,105 325,105C251,105 219,148 219,237l0,456l-164,0l0,-463C55,84 144,-17 325,-17C506,-17 596,90 596,230z" /><glyph unicode="Û" horiz-adv-x="651" d="M192,755l133,84l133,-84l56,65l-141,129l-96,0l-142,-129M596,693l-164,0l0,-456C432,148 400,105 325,105C251,105 219,148 219,237l0,456l-164,0l0,-463C55,84 144,-17 325,-17C506,-17 596,90 596,230z" /><glyph unicode="Ü" horiz-adv-x="651" d="M208,925C163,925 127,890 127,846C127,802 163,767 208,767C254,767 289,802 289,846C289,890 254,925 208,925M439,925C395,925 359,890 359,846C359,802 395,767 439,767C486,767 520,802 520,846C520,890 486,925 439,925M596,693l-164,0l0,-456C432,148 400,105 325,105C251,105 219,148 219,237l0,456l-164,0l0,-463C55,84 144,-17 325,-17C506,-17 596,90 596,230z" /><glyph unicode="Ù" horiz-adv-x="651" d="M241,956l-59,-118l240,-87l40,80M596,693l-164,0l0,-456C432,148 400,105 325,105C251,105 219,148 219,237l0,456l-164,0l0,-463C55,84 144,-17 325,-17C506,-17 596,90 596,230z" /><glyph unicode="Ư" horiz-adv-x="725" d="M726,773l-102,-15C632,738 637,720 637,690C637,658 626,641 596,635l0,58l-164,0l0,-456C432,148 400,105 325,105C251,105 219,148 219,237l0,456l-164,0l0,-463C55,84 144,-17 325,-17C506,-17 596,90 596,230l0,328C689,559 745,601 745,685C745,727 736,754 726,773z" /><glyph unicode="Ű" horiz-adv-x="651" d="M288,956l-96,-178l70,-38l126,159M459,947l-105,-172l67,-42l135,152M596,693l-164,0l0,-456C432,148 400,105 325,105C251,105 219,148 219,237l0,456l-164,0l0,-463C55,84 144,-17 325,-17C506,-17 596,90 596,230z" /><glyph unicode="Ū" horiz-adv-x="651" d="M477,781l0,110l-305,0l0,-110M596,693l-164,0l0,-456C432,148 400,105 325,105C251,105 219,148 219,237l0,456l-164,0l0,-463C55,84 144,-17 325,-17C506,-17 596,90 596,230z" /><glyph unicode="Ų" horiz-adv-x="651" d="M432,693l0,-456C432,148 400,105 325,105C251,105 219,148 219,237l0,456l-164,0l0,-463C55,94 132,-3 290,-16C239,-40 206,-77 206,-129C206,-201 268,-246 353,-246C380,-246 402,-243 423,-238l11,98C411,-145 393,-148 373,-148C337,-148 320,-132 320,-102C320,-74 340,-37 436,-1C543,34 596,122 596,230l0,463z" /><glyph unicode="Υ" horiz-adv-x="594" d="M601,693l-173,0l-128,-305l-128,305l-179,0l222,-434l0,-259l164,0l0,260z" /><glyph unicode="Ϋ" horiz-adv-x="594" d="M179,925C134,925 98,890 98,846C98,802 134,767 179,767C225,767 260,802 260,846C260,890 225,925 179,925M410,925C366,925 330,890 330,846C330,802 366,767 410,767C457,767 491,802 491,846C491,890 457,925 410,925M601,693l-173,0l-128,-305l-128,305l-179,0l222,-434l0,-259l164,0l0,260z" /><glyph unicode="Ύ" horiz-adv-x="845" d="M73,705l7,-240l100,0l46,228M853,693l-173,0l-128,-305l-128,305l-180,0l222,-434l0,-259l165,0l0,260z" /><glyph unicode="Ů" horiz-adv-x="651" d="M325,993C239,993 186,933 186,862C186,791 239,731 325,731C411,731 464,791 464,862C464,933 411,993 325,993M325,912C352,912 370,895 370,862C370,829 351,812 325,812C298,812 280,829 280,862C280,895 298,912 325,912M596,693l-164,0l0,-456C432,148 400,105 325,105C251,105 219,148 219,237l0,456l-164,0l0,-463C55,84 144,-17 325,-17C506,-17 596,90 596,230z" /><glyph unicode="Ү" horiz-adv-x="594" d="M601,693l-173,0l-128,-305l-128,305l-179,0l222,-434l0,-259l164,0l0,260z" /><glyph unicode="Ұ" horiz-adv-x="594" d="M601,693l-173,0l-128,-305l-128,305l-179,0l193,-378l-85,0l0,-93l114,0l0,-222l164,0l0,222l113,0l0,93l-85,0z" /><glyph unicode="Ũ" horiz-adv-x="651" d="M383,761C442,761 487,811 513,878l-79,39C418,888 404,873 382,873C366,873 354,881 336,894C315,908 297,918 266,918C206,918 162,864 137,800l79,-38C232,790 245,806 269,806C286,806 298,797 316,784C336,769 355,761 383,761M596,693l-164,0l0,-456C432,148 400,105 325,105C251,105 219,148 219,237l0,456l-164,0l0,-463C55,84 144,-17 325,-17C506,-17 596,90 596,230z" /><glyph unicode="V" horiz-adv-x="570" d="M584,693l-168,0l-124,-565l-132,565l-173,0l200,-693l204,0z" /><glyph unicode="W" horiz-adv-x="847" d="M837,693l-156,0l-81,-569l-90,569l-172,0l-96,-569l-69,569l-164,0l114,-693l208,0l91,529l86,-529l213,0z" /><glyph unicode="Ẃ" horiz-adv-x="847" d="M506,956l-221,-125l40,-80l240,87M837,693l-156,0l-81,-569l-90,569l-172,0l-96,-569l-69,569l-164,0l114,-693l208,0l91,529l86,-529l213,0z" /><glyph unicode="Ŵ" horiz-adv-x="847" d="M292,755l133,84l133,-84l56,65l-141,129l-96,0l-142,-129M837,693l-156,0l-81,-569l-90,569l-172,0l-96,-569l-69,569l-164,0l114,-693l208,0l91,529l86,-529l213,0z" /><glyph unicode="Ẅ" horiz-adv-x="847" d="M307,925C262,925 226,890 226,846C226,802 262,767 307,767C353,767 388,802 388,846C388,890 353,925 307,925M538,925C494,925 458,890 458,846C458,802 494,767 538,767C585,767 619,802 619,846C619,890 585,925 538,925M837,693l-156,0l-81,-569l-90,569l-172,0l-96,-569l-69,569l-164,0l114,-693l208,0l91,529l86,-529l213,0z" /><glyph unicode="Ẁ" horiz-adv-x="847" d="M340,956l-59,-118l240,-87l40,80M837,693l-156,0l-81,-569l-90,569l-172,0l-96,-569l-69,569l-164,0l114,-693l208,0l91,529l86,-529l213,0z" /><glyph unicode="X" horiz-adv-x="581" d="M385,374l183,319l-174,0l-105,-222l-100,222l-178,0l179,-325l-194,-368l174,0l117,264l119,-264l179,0z" /><glyph unicode="Ξ" horiz-adv-x="524" d="M495,693l-466,0l0,-137l447,0M428,416l-334,0l0,-128l334,0M495,141l-466,0l0,-141l466,0z" /><glyph unicode="Y" horiz-adv-x="594" d="M601,693l-173,0l-128,-305l-128,305l-179,0l222,-434l0,-259l164,0l0,260z" /><glyph unicode="Ý" horiz-adv-x="594" d="M378,956l-221,-125l40,-80l240,87M601,693l-173,0l-128,-305l-128,305l-179,0l222,-434l0,-259l164,0l0,260z" /><glyph unicode="Ŷ" horiz-adv-x="594" d="M164,755l133,84l133,-84l56,65l-141,129l-96,0l-142,-129M601,693l-173,0l-128,-305l-128,305l-179,0l222,-434l0,-259l164,0l0,260z" /><glyph unicode="Ÿ" horiz-adv-x="594" d="M179,925C134,925 98,890 98,846C98,802 134,767 179,767C225,767 260,802 260,846C260,890 225,925 179,925M410,925C366,925 330,890 330,846C330,802 366,767 410,767C457,767 491,802 491,846C491,890 457,925 410,925M601,693l-173,0l-128,-305l-128,305l-179,0l222,-434l0,-259l164,0l0,260z" /><glyph unicode="Ỳ" horiz-adv-x="594" d="M212,956l-59,-118l240,-87l40,80M601,693l-173,0l-128,-305l-128,305l-179,0l222,-434l0,-259l164,0l0,260z" /><glyph unicode="Z" horiz-adv-x="544" d="M512,693l-463,0l0,-127l276,0l-307,-443l0,-123l483,0l16,131l-306,0l301,438z" /><glyph unicode="Ź" horiz-adv-x="544" d="M357,956l-221,-125l40,-80l240,87M512,693l-463,0l0,-127l276,0l-307,-443l0,-123l483,0l16,131l-306,0l301,438z" /><glyph unicode="Ž" horiz-adv-x="544" d="M410,944l-133,-84l-133,84l-57,-65l142,-129l96,0l141,129M512,693l-463,0l0,-127l276,0l-307,-443l0,-123l483,0l16,131l-306,0l301,438z" /><glyph unicode="Ż" horiz-adv-x="544" d="M276,937C221,937 183,898 183,847C183,796 221,757 276,757C331,757 370,796 370,847C370,898 331,937 276,937M512,693l-463,0l0,-127l276,0l-307,-443l0,-123l483,0l16,131l-306,0l301,438z" /><glyph unicode="Ζ" horiz-adv-x="544" d="M512,693l-463,0l0,-127l276,0l-307,-443l0,-123l483,0l16,131l-306,0l301,438z" /><glyph unicode="a" horiz-adv-x="546" d="M482,154l0,206C482,483 416,548 262,548C202,548 129,534 62,509l36,-104C151,423 203,433 237,433C302,433 327,414 327,351l0,-23l-54,0C113,328 24,265 24,149C24,52 91,-17 197,-17C260,-17 319,4 357,62C382,10 423,-9 485,-14l33,103C493,98 482,113 482,154M243,96C204,96 182,121 182,163C182,216 216,241 288,241l39,0l0,-95C308,115 279,96 243,96z" /><glyph unicode="á" horiz-adv-x="546" d="M403,717l-62,118l-218,-132l44,-81M482,154l0,206C482,483 416,548 262,548C202,548 129,534 62,509l36,-104C151,423 203,433 237,433C302,433 327,414 327,351l0,-23l-54,0C113,328 24,265 24,149C24,52 91,-17 197,-17C260,-17 319,4 357,62C381,10 423,-9 485,-14l33,103C493,98 482,113 482,154M243,96C204,96 182,121 182,163C182,216 216,241 288,241l39,0l0,-95C308,115 280,96 243,96z" /><glyph unicode="ă" horiz-adv-x="546" d="M269,632C374,632 434,709 442,805l-87,15C342,772 315,742 269,742C223,742 196,772 184,820l-87,-15C105,709 164,632 269,632M482,154l0,206C482,483 416,548 262,548C202,548 129,534 62,509l36,-104C151,423 203,433 237,433C302,433 327,414 327,351l0,-23l-54,0C113,328 24,265 24,149C24,52 91,-17 197,-17C260,-17 319,4 357,62C381,10 423,-9 485,-14l33,103C493,98 482,113 482,154M243,96C204,96 182,121 182,163C182,216 216,241 288,241l39,0l0,-95C308,115 280,96 243,96z" /><glyph unicode="â" horiz-adv-x="546" d="M135,620l134,92l133,-92l56,65l-141,137l-97,0l-141,-137M482,154l0,206C482,483 416,548 262,548C202,548 129,534 62,509l36,-104C151,423 203,433 237,433C302,433 327,414 327,351l0,-23l-54,0C113,328 24,265 24,149C24,52 91,-17 197,-17C260,-17 319,4 357,62C382,10 423,-9 485,-14l33,103C493,98 482,113 482,154M243,96C204,96 182,121 182,163C182,216 216,241 288,241l39,0l0,-95C308,115 279,96 243,96z" /><glyph unicode="´" horiz-adv-x="340" d="M248,835l-218,-132l44,-81l236,95z" /><glyph unicode="́" horiz-adv-x="0" d="M-92,835l-218,-132l44,-81l236,95z" /><glyph unicode="ä" horiz-adv-x="546" d="M153,799C108,799 72,764 72,720C72,676 108,641 153,641C199,641 234,676 234,720C234,764 199,799 153,799M384,799C340,799 304,764 304,720C304,676 340,641 384,641C431,641 465,676 465,720C465,764 431,799 384,799M482,154l0,206C482,483 416,548 262,548C202,548 129,534 62,509l36,-104C151,423 203,433 237,433C302,433 327,414 327,351l0,-23l-54,0C113,328 24,265 24,149C24,52 91,-17 197,-17C260,-17 319,4 357,62C382,10 423,-9 485,-14l33,103C493,98 482,113 482,154M243,96C204,96 182,121 182,163C182,216 216,241 288,241l39,0l0,-95C308,115 279,96 243,96z" /><glyph unicode="æ" horiz-adv-x="855" d="M826,276C826,448 733,548 593,548C522,548 470,522 431,481C399,522 350,548 269,548C208,548 135,534 69,509l35,-105C157,422 209,432 244,432C308,432 333,412 333,350l0,-22l-54,0C114,328 24,265 24,149C24,52 91,-17 201,-17C275,-17 342,6 389,74C433,18 504,-17 600,-17C686,-17 754,15 807,57l-65,88C696,113 658,98 615,98C549,98 504,124 494,219l329,0C825,235 826,259 826,276M670,314l-176,0C501,409 532,443 584,443C648,443 670,393 670,321M251,96C212,96 191,120 191,160C191,215 225,238 295,238l40,0l0,-4C336,208 340,183 346,160C320,120 291,96 251,96z" /><glyph unicode="ǽ" horiz-adv-x="855" d="M561,717l-62,118l-218,-132l44,-81M826,276C826,448 733,548 593,548C522,548 470,522 431,481C399,522 350,548 269,548C208,548 135,534 69,509l35,-105C157,422 209,432 244,432C308,432 333,412 333,350l0,-22l-54,0C114,328 24,265 24,149C24,52 91,-17 201,-17C275,-17 342,6 389,74C433,18 504,-17 600,-17C686,-17 754,15 807,57l-65,88C696,113 658,98 615,98C549,98 504,124 494,219l329,0C825,235 826,259 826,276M670,314l-176,0C501,409 532,443 584,443C648,443 670,393 670,321M251,96C212,96 191,120 191,160C191,215 225,238 295,238l40,0l0,-4C336,208 340,183 346,160C320,120 291,96 251,96z" /><glyph unicode="à" horiz-adv-x="546" d="M201,835l-62,-118l236,-95l44,81M482,154l0,206C482,483 416,548 262,548C202,548 129,534 62,509l36,-104C151,423 203,433 237,433C302,433 327,414 327,351l0,-23l-54,0C113,328 24,265 24,149C24,52 91,-17 197,-17C260,-17 319,4 357,62C382,10 423,-9 485,-14l33,103C493,98 482,113 482,154M243,96C204,96 182,121 182,163C182,216 216,241 288,241l39,0l0,-95C308,115 279,96 243,96z" /><glyph unicode="α" horiz-adv-x="597" d="M251,548C112,548 32,428 32,261C32,79 112,-17 235,-17C317,-17 366,29 399,113l7,-36C419,19 461,-9 523,-17l51,118C544,107 526,121 518,155l-27,105l69,271l-135,0l-16,-121C390,500 339,548 251,548M272,433C321,433 347,395 370,272C346,133 311,98 268,98C225,98 192,142 192,261C192,379 225,433 272,433z" /><glyph unicode="ά" horiz-adv-x="597" d="M223,836l7,-240l101,0l46,228M251,548C112,548 32,428 32,261C32,79 112,-17 235,-17C317,-17 366,29 399,113l7,-36C419,19 461,-9 523,-17l51,118C544,107 526,121 518,155l-27,105l69,271l-135,0l-16,-121C390,500 339,548 251,548M272,433C321,433 347,395 370,272C346,133 311,98 268,98C225,98 192,142 192,261C192,379 225,433 272,433z" /><glyph unicode="ā" horiz-adv-x="546" d="M421,655l0,110l-305,0l0,-110M482,154l0,206C482,483 416,548 262,548C202,548 129,534 62,509l36,-104C151,423 203,433 237,433C302,433 327,414 327,351l0,-23l-54,0C113,328 24,265 24,149C24,52 91,-17 197,-17C260,-17 319,4 357,62C382,10 423,-9 485,-14l33,103C493,98 482,113 482,154M243,96C204,96 182,121 182,163C182,216 216,241 288,241l39,0l0,-95C308,115 279,96 243,96z" /><glyph unicode="&amp;" horiz-adv-x="760" d="M313,710C168,710 99,630 99,544C99,480 126,440 195,373C105,314 60,260 60,177C60,60 159,-17 307,-17C391,-17 463,7 526,58l78,-75l135,63l-121,107C653,202 684,263 710,339l-132,39C565,322 549,274 530,234l-135,127C472,412 527,466 527,550C527,641 448,710 313,710M315,608C353,608 376,584 376,546C376,504 354,474 308,444C266,486 251,509 251,544C251,582 275,608 315,608M285,288l162,-155C414,108 378,95 334,95C268,95 225,131 225,186C225,226 244,258 285,288z" /><glyph unicode="·" horiz-adv-x="240" d="M120,398C69,398 29,357 29,308C29,258 69,217 120,217C170,217 210,258 210,308C210,357 170,398 120,398z" /><glyph unicode="ą" horiz-adv-x="546" d="M486,-14l-1,1l33,102C493,98 482,113 482,154l0,206C482,483 416,548 262,548C202,548 129,534 62,509l36,-104C151,423 203,433 237,433C302,433 327,414 327,351l0,-23l-54,0C113,328 24,265 24,149C24,52 91,-17 197,-17C260,-17 319,4 357,62C367,41 379,26 395,14C308,-19 254,-68 254,-143C254,-215 316,-260 401,-260C427,-260 449,-257 471,-252l11,98C459,-159 440,-162 421,-162C385,-162 368,-146 368,-116C368,-88 387,-51 486,-14M327,146C308,115 279,96 243,96C204,96 182,121 182,163C182,216 216,241 288,241l39,0z" /><glyph unicode="≈" horiz-adv-x="514" d="M338,338C422,338 467,401 498,463l-83,41C397,479 380,456 346,456C296,456 265,516 177,516C93,516 47,451 16,389l84,-42C118,373 134,399 169,399C218,399 249,338 338,338M338,130C422,130 467,193 498,254l-83,42C397,271 380,248 346,248C296,248 265,308 177,308C93,308 47,243 16,181l84,-42C118,165 134,191 169,191C218,191 249,130 338,130z" /><glyph unicode="å" horiz-adv-x="546" d="M269,867C183,867 130,807 130,736C130,665 183,605 269,605C355,605 408,665 408,736C408,807 355,867 269,867M269,786C296,786 314,769 314,736C314,703 295,686 269,686C242,686 224,703 224,736C224,769 242,786 269,786M482,154l0,206C482,483 416,548 262,548C202,548 129,534 62,509l36,-104C151,423 203,433 237,433C302,433 327,414 327,351l0,-23l-54,0C113,328 24,265 24,149C24,52 91,-17 197,-17C260,-17 319,4 357,62C382,10 423,-9 485,-14l33,103C493,98 482,113 482,154M243,96C204,96 182,121 182,163C182,216 216,241 288,241l39,0l0,-95C308,115 279,96 243,96z" /><glyph unicode="ǻ" horiz-adv-x="546" d="M351,1049l-221,-125l40,-80l240,86M268,840C182,840 129,780 129,709C129,638 182,577 268,577C354,577 407,638 407,709C407,780 354,840 268,840M268,758C295,758 313,742 313,709C313,676 295,659 268,659C241,659 223,676 223,709C223,742 241,758 268,758M482,154l0,206C482,483 416,548 262,548C202,548 129,534 62,509l36,-104C151,423 203,433 237,433C302,433 327,414 327,351l0,-23l-54,0C113,328 24,265 24,149C24,52 91,-17 197,-17C260,-17 319,4 357,62C382,10 423,-9 485,-14l33,103C493,98 482,113 482,154M243,96C204,96 182,121 182,163C182,216 216,241 288,241l39,0l0,-95C308,115 279,96 243,96z" /><glyph unicode="↔" horiz-adv-x="1297" d="M901,664l-104,-89l93,-101C927,434 950,415 987,393l-694,0C330,415 353,434 390,474l93,101l-104,89l-301,-335l301,-335l104,89l-93,101C356,221 329,244 292,265l696,0C951,244 924,221 890,184l-93,-101l104,-89l301,335z" /><glyph unicode="↓" horiz-adv-x="900" d="M522,654l-144,0l0,-498C359,196 340,219 303,253l-105,96l-88,-92l340,-308l340,308l-88,92l-105,-96C560,219 541,196 522,156z" /><glyph unicode="←" horiz-adv-x="900" d="M379,664l-301,-335l301,-335l104,89l-93,101C356,221 329,244 292,265l513,0l0,128l-512,0C330,415 353,434 390,474l93,101z" /><glyph unicode="→" horiz-adv-x="900" d="M521,664l-104,-89l93,-101C547,434 570,415 607,393l-512,0l0,-128l513,0C571,244 544,221 510,184l-93,-101l104,-89l301,335z" /><glyph unicode="↑" horiz-adv-x="900" d="M378,0l144,0l0,498C541,458 560,435 597,402l105,-96l88,92l-340,307l-340,-307l88,-92l105,96C340,435 359,458 378,498z" /><glyph unicode="↕" horiz-adv-x="900" d="M450,890l-340,-307l88,-92l105,96C340,620 359,642 378,683l0,-698C359,26 340,48 303,81l-105,97l-88,-93l340,-307l340,307l-88,93l-105,-97C560,48 541,26 522,-15l0,698C541,642 560,620 597,587l105,-96l88,92z" /><glyph unicode="^" horiz-adv-x="559" d="M351,844l-144,0l-189,-317l157,0l103,199l108,-199l154,0z" /><glyph unicode="~" horiz-adv-x="514" d="M338,232C422,232 467,295 498,357l-83,41C397,373 380,350 346,350C296,350 265,410 177,410C93,410 47,345 16,283l84,-42C118,267 134,293 169,293C218,293 249,232 338,232z" /><glyph unicode="*" horiz-adv-x="449" d="M441,535l-42,127l-127,-64l21,144l-136,0l20,-143l-128,62l-41,-126l141,-24l-100,-102l110,-80l66,128l66,-127l110,80l-101,102z" /><glyph unicode="@" horiz-adv-x="1020" d="M527,503C379,503 294,397 294,233C294,104 350,8 477,8C549,8 596,50 620,106C631,57 674,4 754,4C886,4 972,135 972,316C972,521 811,710 527,710C248,710 48,514 48,242C48,-41 236,-222 526,-222C610,-222 698,-204 761,-180l-37,109C672,-90 596,-105 527,-105C307,-105 191,29 191,242C191,450 311,595 526,595C734,595 830,488 830,314C830,152 795,102 747,102C713,102 700,128 700,211l0,247C646,488 582,503 527,503M498,107C456,107 437,140 437,232C437,361 470,403 522,403C539,403 551,400 566,394l0,-238C555,132 533,107 498,107z" /><glyph unicode="ã" horiz-adv-x="546" d="M327,635C386,635 431,685 457,752l-79,39C362,762 348,747 326,747C310,747 298,755 280,768C259,782 241,792 210,792C150,792 106,738 81,674l79,-38C176,664 189,680 213,680C230,680 242,671 260,658C280,643 299,635 327,635M482,154l0,206C482,483 416,548 262,548C202,548 129,534 62,509l36,-104C151,423 203,433 237,433C302,433 327,414 327,351l0,-23l-54,0C113,328 24,265 24,149C24,52 91,-17 197,-17C260,-17 319,4 357,62C382,10 423,-9 485,-14l33,103C493,98 482,113 482,154M243,96C204,96 182,121 182,163C182,216 216,241 288,241l39,0l0,-95C308,115 279,96 243,96z" /><glyph unicode="b" horiz-adv-x="591" d="M362,548C303,548 251,521 219,477l0,282l-158,-17l0,-742l140,0l8,51C241,9 289,-17 348,-17C480,-17 559,101 559,265C559,443 489,548 362,548M302,98C268,98 239,117 219,149l0,221C242,409 273,432 309,432C359,432 395,400 395,265C395,141 357,98 302,98z" /><glyph unicode="\" horiz-adv-x="520" d="M211,816l-138,-31l235,-897l139,32z" /><glyph unicode="|" horiz-adv-x="376" d="M262,810l-147,0l0,-915l147,0z" /><glyph unicode="β" horiz-adv-x="606" d="M385,405C474,425 524,482 524,570C524,680 437,759 296,759C158,759 61,681 61,546l0,-768l152,22l0,228C252,0 297,-17 354,-17C483,-17 580,73 580,207C580,360 470,397 385,405M313,104C269,104 239,112 213,128l0,419C213,615 242,647 293,647C341,647 371,619 371,556C371,485 338,451 288,451l-24,0l-10,-107l39,0C368,344 421,313 421,220C421,139 374,104 313,104z" /><glyph unicode="{" horiz-adv-x="324" d="M298,840C118,840 74,784 74,675l0,-179C74,438 61,414 9,414l0,-129C61,285 74,262 74,204l0,-179C74,-83 118,-140 298,-140l0,110C239,-30 222,-13 222,30l0,186C222,304 183,335 118,349C184,366 222,395 222,484l0,186C222,713 238,730 298,730z" /><glyph unicode="}" horiz-adv-x="324" d="M26,840l0,-110C86,730 102,713 102,670l0,-186C102,395 140,366 206,349C141,335 101,304 101,216l0,-186C101,-13 85,-30 26,-30l0,-110C206,-140 249,-83 249,25l0,179C249,262 263,285 314,285l0,129C263,414 249,438 249,496l0,179C249,784 206,840 26,840z" /><glyph unicode="[" horiz-adv-x="324" d="M299,823l-265,0l0,-946l265,0l0,117l-115,0l0,711l115,0z" /><glyph unicode="]" horiz-adv-x="324" d="M290,823l-265,0l0,-118l115,0l0,-710l-115,0l0,-118l265,0z" /><glyph unicode="˘" horiz-adv-x="405" d="M202,632C307,632 367,709 375,805l-87,15C275,772 248,742 202,742C156,742 129,772 117,820l-87,-15C38,709 97,632 202,632z" /><glyph unicode="¦" horiz-adv-x="376" d="M262,810l-147,0l0,-367l147,0M262,262l-147,0l0,-367l147,0z" /><glyph unicode="•" horiz-adv-x="346" d="M173,480C94,480 35,421 35,342C35,264 94,203 173,203C252,203 311,262 311,341C311,420 252,480 173,480z" /><glyph unicode="c" horiz-adv-x="479" d="M292,548C133,548 32,430 32,261C32,93 132,-17 295,-17C368,-17 425,7 474,46l-69,98C367,120 341,108 303,108C240,108 198,144 198,262C198,381 237,427 305,427C341,427 372,415 406,389l68,94C423,526 366,548 292,548z" /><glyph unicode="ć" horiz-adv-x="479" d="M363,835l-218,-132l44,-81l236,95M292,548C133,548 32,430 32,261C32,93 132,-17 295,-17C368,-17 425,7 474,46l-69,98C367,120 341,108 303,108C240,108 198,144 198,262C198,381 237,427 305,427C341,427 372,415 406,389l68,94C423,526 366,548 292,548z" /><glyph unicode="ˇ" horiz-adv-x="439" d="M353,813l-133,-91l-133,91l-57,-65l142,-137l96,0l141,137z" /><glyph unicode="č" horiz-adv-x="479" d="M424,813l-133,-91l-133,91l-57,-65l142,-137l96,0l141,137M292,548C133,548 32,430 32,261C32,93 132,-17 295,-17C368,-17 425,7 474,46l-69,98C367,120 341,108 303,108C240,108 198,144 198,262C198,381 237,427 305,427C341,427 372,415 406,389l68,94C423,526 366,548 292,548z" /><glyph unicode="ç" horiz-adv-x="479" d="M474,46l-69,98C367,120 341,108 303,108C240,108 198,144 198,262C198,381 237,427 305,427C341,427 372,415 406,389l68,94C423,526 366,548 292,548C133,548 32,430 32,261C32,116 107,14 233,-11l-12,-101C285,-112 313,-122 313,-146C313,-168 294,-176 266,-176C241,-176 222,-169 202,-159l-36,-73C191,-249 231,-262 278,-262C369,-262 427,-215 427,-147C427,-93 395,-56 323,-48l0,32C383,-10 431,12 474,46z" /><glyph unicode="ĉ" horiz-adv-x="479" d="M157,620l134,92l133,-92l56,65l-141,137l-97,0l-141,-137M292,548C133,548 32,430 32,261C32,93 132,-17 295,-17C368,-17 425,7 474,46l-69,98C367,120 341,108 303,108C240,108 198,144 198,262C198,381 237,427 305,427C341,427 372,415 406,389l68,94C423,526 366,548 292,548z" /><glyph unicode="ċ" horiz-adv-x="479" d="M290,811C235,811 197,772 197,721C197,670 235,631 290,631C345,631 384,670 384,721C384,772 345,811 290,811M292,548C133,548 32,430 32,261C32,93 132,-17 295,-17C368,-17 425,7 474,46l-69,98C367,120 341,108 303,108C240,108 198,144 198,262C198,381 237,427 305,427C341,427 372,415 406,389l68,94C423,526 366,548 292,548z" /><glyph unicode="¸" horiz-adv-x="321" d="M187,16l-87,0l-15,-128C149,-112 177,-122 177,-146C177,-168 158,-176 130,-176C105,-176 86,-169 66,-159l-36,-73C55,-249 95,-262 142,-262C233,-262 291,-215 291,-147C291,-93 259,-56 187,-48z" /><glyph unicode="¢" horiz-adv-x="479" d="M405,144C367,120 341,108 303,108C240,108 198,144 198,262C198,381 237,427 305,427C341,427 372,415 406,389l68,94C436,515 395,535 346,544l0,147l-113,0l0,-149C108,516 32,408 32,261C32,116 107,14 232,-11l0,-150l114,0l0,148C396,-4 437,17 474,46z" /><glyph unicode="χ" horiz-adv-x="493" d="M328,185l157,343l-162,16l-75,-255C203,434 177,480 133,545l-155,-47C44,428 89,347 165,183l-182,-387l161,-17l100,280l105,-280l157,25z" /><glyph unicode="ˆ" horiz-adv-x="439" d="M86,620l134,92l133,-92l56,65l-141,137l-97,0l-141,-137z" /><glyph unicode=":" horiz-adv-x="240" d="M120,509C69,509 29,468 29,419C29,370 69,329 120,329C170,329 210,370 210,419C210,468 170,509 120,509M120,164C69,164 29,123 29,74C29,24 69,-17 120,-17C170,-17 210,24 210,74C210,123 170,164 120,164z" /><glyph unicode="₡" horiz-adv-x="559" d="M552,70l-72,85C449,131 418,111 381,103l56,449C448,546 458,539 468,531l76,84C516,639 486,658 452,671l20,159l-60,0l-18,-144C383,688 371,689 358,690l18,140l-60,0l-18,-142C144,669 33,546 33,338C34,167 102,54 213,7l-21,-168l60,0l19,151C282,-13 294,-14 306,-15l-18,-146l60,0l18,145C447,-9 511,29 552,70M286,111l58,466l3,0C358,577 369,576 380,574l-59,-472C309,104 297,107 286,111M187,338C187,468 223,538 283,565l-52,-411C203,192 187,252 187,338z" /><glyph unicode="," horiz-adv-x="240" d="M120,164C68,164 29,125 29,74C29,43 44,16 69,-1l-43,-176l89,0l63,145C200,17 210,43 210,74C210,125 171,164 120,164z" /><glyph unicode="©" horiz-adv-x="810" d="M406,766C218,766 67,629 67,432C67,236 218,99 406,99C594,99 743,236 743,432C743,629 594,766 406,766M406,687C547,687 652,584 652,432C652,281 547,179 406,179C264,179 159,281 159,432C159,584 264,687 406,687M408,630C306,630 231,556 231,433C231,306 301,236 409,236C463,236 508,257 542,289l-44,64C473,334 449,324 418,324C374,324 345,354 345,433C345,514 378,543 419,543C445,543 465,538 491,519l48,60C504,611 458,630 408,630z" /><glyph unicode="¤" horiz-adv-x="560" d="M501,342C501,386 489,426 468,460l75,76l-69,70l-77,-78C364,547 324,558 280,558C237,558 198,547 165,528l-78,78l-70,-70l77,-77C73,425 61,385 61,342C61,298 73,258 94,224l-77,-76l69,-70l79,77C198,136 237,125 280,125C324,125 363,136 396,154l78,-76l69,70l-75,75C489,257 501,297 501,342M281,231C218,231 184,272 184,342C184,411 218,452 281,452C346,452 378,411 378,342C378,272 346,231 281,231z" /><glyph unicode="d" horiz-adv-x="594" d="M375,759l0,-261C344,529 301,548 249,548C118,548 32,431 32,267C32,95 99,-17 234,-17C306,-17 354,18 385,62l8,-62l140,0l0,742M283,99C232,99 196,134 196,266C196,385 236,433 292,433C327,433 351,416 375,388l0,-229C350,119 321,99 283,99z" /><glyph unicode="†" horiz-adv-x="529" d="M338,676l-148,0l0,-140l-165,0l0,-128l165,0l0,-408l148,0l0,408l165,0l0,128l-165,0z" /><glyph unicode="‡" horiz-adv-x="529" d="M503,408l0,128l-165,0l0,140l-148,0l0,-140l-165,0l0,-128l165,0l0,-135l-165,0l0,-128l165,0l0,-145l148,0l0,145l165,0l0,128l-165,0l0,135z" /><glyph unicode="ď" horiz-adv-x="686" d="M375,498C344,529 301,548 249,548C118,548 32,431 32,267C32,95 99,-17 234,-17C306,-17 354,18 385,62l8,-62l140,0l0,742l-158,17M599,758l-23,-219l87,-13l55,215M283,99C232,99 196,134 196,266C196,385 236,433 292,433C327,433 351,416 375,388l0,-229C350,119 321,99 283,99z" /><glyph unicode="đ" horiz-adv-x="608" d="M533,688l0,54l-158,17l0,-71l-132,0l0,-92l132,0l0,-98C344,529 301,548 249,548C118,548 32,431 32,267C32,95 99,-17 234,-17C306,-17 354,18 385,62l8,-62l140,0l0,596l67,0l0,92M283,99C232,99 196,134 196,266C196,385 236,433 292,433C327,433 351,416 375,388l0,-229C350,119 321,99 283,99z" /><glyph unicode="°" horiz-adv-x="521" d="M218,369C306,369 396,433 396,541C396,648 306,710 218,710C130,710 39,648 39,541C39,434 130,369 218,369M218,462C176,462 148,493 148,541C148,589 176,619 218,619C260,619 287,589 287,541C287,493 260,462 218,462z" /><glyph unicode="δ" horiz-adv-x="577" d="M338,518C250,554 238,569 238,601C238,628 258,649 311,649C353,649 385,636 420,614l72,84C447,732 384,759 300,759C151,759 86,687 86,604C86,550 103,507 184,462C86,416 32,342 32,241C32,80 130,-17 288,-17C446,-17 545,89 545,248C545,391 479,461 338,518M288,99C224,99 195,147 195,247C195,326 212,379 266,424C362,380 381,345 381,249C381,146 349,99 288,99z" /><glyph unicode="¨" horiz-adv-x="453" d="M110,799C65,799 29,764 29,720C29,676 65,641 110,641C155,641 190,676 190,720C190,764 155,799 110,799M341,799C297,799 261,764 261,720C261,676 297,641 341,641C387,641 422,676 422,720C422,764 387,799 341,799z" /><glyph unicode="΅" horiz-adv-x="485" d="M193,948l6,-207l87,0l39,197M111,759C65,759 30,724 30,680C30,636 65,601 111,601C155,601 192,636 192,680C192,724 155,759 111,759M374,759C328,759 293,724 293,680C293,636 328,601 374,601C418,601 455,636 455,680C455,724 418,759 374,759z" /><glyph unicode="÷" horiz-adv-x="519" d="M259,664C209,664 169,623 169,574C169,524 209,483 259,483C310,483 350,524 350,574C350,623 310,664 259,664M48,271l422,0l0,122l-422,0M259,181C209,181 169,141 169,91C169,42 209,1 259,1C310,1 350,42 350,91C350,141 310,181 259,181z" /><glyph unicode="$" horiz-adv-x="549" d="M525,200C525,321 452,374 327,414C223,447 198,464 198,506C198,548 233,571 288,571C342,571 388,553 433,515l73,86C462,644 409,671 340,682l0,148l-114,0l0,-148C115,666 37,596 37,494C37,396 91,335 240,288C337,258 361,237 361,188C361,137 321,106 256,106C190,106 136,130 90,173l-81,-88C58,37 129,-1 226,-9l0,-152l114,0l0,158C457,21 525,97 525,200z" /><glyph unicode="₫" horiz-adv-x="608" d="M533,654l0,51l-158,16l0,-67l-132,0l0,-88l132,0l0,-94C344,502 301,521 249,521C118,521 32,409 32,253C32,90 99,-16 234,-16C306,-16 354,17 385,59l8,-59l140,0l0,566l67,0l0,88M283,94C232,94 196,127 196,253C196,366 236,411 292,411C327,411 351,395 375,369l0,-219C350,113 321,94 283,94M150,-191l305,0l0,109l-305,0z" /><glyph unicode="˙" horiz-adv-x="247" d="M123,811C68,811 30,772 30,721C30,670 68,631 123,631C178,631 217,670 217,721C217,772 178,811 123,811z" /><glyph unicode="̣" horiz-adv-x="0" d="M-123,-239C-69,-239 -30,-201 -30,-150C-30,-99 -69,-60 -123,-60C-179,-60 -217,-99 -217,-150C-217,-201 -179,-239 -123,-239z" /><glyph unicode="ı" horiz-adv-x="280" d="M219,531l-158,0l0,-531l158,0z" /><glyph unicode="⋅" horiz-adv-x="240" d="M120,398C69,398 29,357 29,308C29,258 69,217 120,217C170,217 210,258 210,308C210,357 170,398 120,398z" /><glyph unicode="e" horiz-adv-x="554" d="M525,276C525,448 432,548 280,548C119,548 32,422 32,263C32,97 122,-17 299,-17C385,-17 453,15 506,57l-65,88C395,113 357,98 314,98C249,98 204,124 194,219l328,0C524,235 525,259 525,276M370,314l-177,0C201,410 231,443 284,443C347,443 369,393 370,321z" /><glyph unicode="é" horiz-adv-x="554" d="M417,717l-62,118l-218,-132l44,-81M525,276C525,448 432,548 280,548C119,548 32,422 32,263C32,97 122,-17 299,-17C385,-17 453,15 506,57l-65,88C395,113 357,98 314,98C249,98 204,124 193,219l329,0C524,235 525,259 525,276M370,314l-177,0C200,409 231,443 284,443C347,443 369,393 370,321z" /><glyph unicode="ĕ" horiz-adv-x="554" d="M282,632C387,632 447,709 455,805l-87,15C355,772 328,742 282,742C236,742 209,772 197,820l-87,-15C118,709 177,632 282,632M525,276C525,448 432,548 280,548C119,548 32,422 32,263C32,97 122,-17 299,-17C385,-17 453,15 506,57l-65,88C395,113 357,98 314,98C249,98 204,124 193,219l329,0C524,235 525,259 525,276M370,314l-177,0C200,409 231,443 284,443C347,443 369,393 370,321z" /><glyph unicode="ě" horiz-adv-x="554" d="M331,611l141,137l-56,65l-133,-91l-133,91l-57,-65l142,-137M525,276C525,448 432,548 280,548C119,548 32,422 32,263C32,97 122,-17 299,-17C385,-17 453,15 506,57l-65,88C395,113 357,98 314,98C249,98 204,124 193,219l329,0C524,235 525,259 525,276M370,314l-177,0C200,409 231,443 284,443C347,443 369,393 370,321z" /><glyph unicode="ê" horiz-adv-x="554" d="M283,712l133,-92l56,65l-141,137l-97,0l-141,-137l56,-65M525,276C525,448 432,548 280,548C119,548 32,422 32,263C32,97 122,-17 299,-17C385,-17 453,15 506,57l-65,88C395,113 357,98 314,98C249,98 204,124 193,219l329,0C524,235 525,259 525,276M370,314l-177,0C200,409 231,443 284,443C347,443 369,393 370,321z" /><glyph unicode="ë" horiz-adv-x="554" d="M166,799C121,799 85,764 85,720C85,676 121,641 166,641C212,641 247,676 247,720C247,764 212,799 166,799M397,799C353,799 317,764 317,720C317,676 353,641 397,641C444,641 478,676 478,720C478,764 444,799 397,799M525,276C525,448 432,548 280,548C119,548 32,422 32,263C32,97 122,-17 299,-17C385,-17 453,15 506,57l-65,88C395,113 357,98 314,98C249,98 204,124 194,219l328,0C524,235 525,259 525,276M370,314l-177,0C201,410 231,443 284,443C347,443 369,393 370,321z" /><glyph unicode="ė" horiz-adv-x="554" d="M282,811C227,811 189,772 189,721C189,670 227,631 282,631C337,631 376,670 376,721C376,772 337,811 282,811M525,276C525,448 432,548 280,548C119,548 32,422 32,263C32,97 122,-17 299,-17C385,-17 453,15 506,57l-65,88C395,113 357,98 314,98C249,98 204,124 194,219l328,0C524,235 525,259 525,276M370,314l-177,0C201,410 231,443 284,443C347,443 369,393 370,321z" /><glyph unicode="è" horiz-adv-x="554" d="M215,835l-62,-118l236,-95l44,81M525,276C525,448 432,548 280,548C119,548 32,422 32,263C32,97 122,-17 299,-17C385,-17 453,15 506,57l-65,88C395,113 357,98 314,98C249,98 204,124 194,219l328,0C524,235 525,259 525,276M370,314l-177,0C201,410 231,443 284,443C347,443 369,393 370,321z" /><glyph unicode="8" horiz-adv-x="581" d="M417,363C492,403 525,458 525,516C525,626 425,690 291,690C155,690 56,617 56,508C56,446 83,390 155,348C77,314 29,260 29,180C29,72 124,-17 287,-17C455,-17 551,74 551,183C551,260 509,319 417,363M292,583C345,583 372,552 372,508C372,466 360,434 312,403l-21,8C236,434 209,459 209,506C209,557 242,583 292,583M292,96C228,96 188,132 188,188C188,239 210,279 256,305l33,-12C365,265 393,239 393,184C393,135 359,96 292,96z" /><glyph unicode="…" horiz-adv-x="727" d="M120,164C69,164 29,123 29,74C29,24 69,-17 120,-17C170,-17 210,24 210,74C210,123 170,164 120,164M363,164C313,164 273,123 273,74C273,24 313,-17 363,-17C414,-17 454,24 454,74C454,123 414,164 363,164M606,164C556,164 516,123 516,74C516,24 556,-17 606,-17C657,-17 697,24 697,74C697,123 657,164 606,164z" /><glyph unicode="ē" horiz-adv-x="554" d="M435,655l0,110l-305,0l0,-110M525,276C525,448 432,548 280,548C119,548 32,422 32,263C32,97 122,-17 299,-17C385,-17 453,15 506,57l-65,88C395,113 357,98 314,98C249,98 204,124 194,219l328,0C524,235 525,259 525,276M370,314l-177,0C201,410 231,443 284,443C347,443 369,393 370,321z" /><glyph unicode="—" horiz-adv-x="796" d="M21,252l754,0l0,122l-754,0z" /><glyph unicode="∅" horiz-adv-x="900" d="M695,623l66,89l-109,0l-28,-39C572,701 514,716 451,716C248,716 84,554 84,349C84,246 126,154 193,88l-74,-100l109,0l35,47C318,2 382,-16 451,-16C654,-16 816,144 816,349C816,459 770,556 695,623M179,349C179,502 298,625 451,625C493,625 533,616 569,599l-320,-435C205,213 179,278 179,349M451,75C402,75 357,87 317,109l323,439C691,498 722,427 722,349C722,197 604,75 451,75z" /><glyph unicode="–" horiz-adv-x="520" d="M21,252l478,0l0,122l-478,0z" /><glyph unicode="ŋ" horiz-adv-x="575" d="M519,1l0,387C519,489 464,548 372,548C305,548 254,520 210,467l-12,64l-137,0l0,-531l158,0l0,363C246,407 276,432 311,432C342,432 361,417 361,361l0,-361l1,0l0,-46C362,-87 341,-107 306,-107C276,-107 259,-99 235,-87l-53,-92C214,-203 258,-222 324,-222C441,-222 520,-158 520,-31l0,32z" /><glyph unicode="ę" horiz-adv-x="554" d="M525,276C525,448 432,548 280,548C119,548 32,422 32,263C32,110 109,1 260,-15C218,-39 192,-74 192,-120C192,-192 254,-237 339,-237C366,-237 388,-234 409,-229l11,98C397,-136 379,-139 359,-139C323,-139 306,-123 306,-93C306,-68 322,-35 397,-2C439,11 475,32 506,57l-65,88C395,113 357,98 314,98C249,98 204,124 194,219l328,0C524,235 525,259 525,276M370,314l-177,0C201,410 231,443 284,443C347,443 369,393 370,321z" /><glyph unicode="ε" horiz-adv-x="477" d="M260,548C134,548 49,493 49,402C49,340 88,299 171,283C78,272 29,228 29,147C29,39 126,-17 258,-17C347,-17 421,7 474,47l-66,89C361,108 324,96 280,96C221,96 192,121 192,160C192,200 215,222 276,222l59,0l15,102l-67,0C234,324 209,348 209,383C209,419 237,439 281,439C324,439 357,427 394,406l65,82C403,529 338,548 260,548z" /><glyph unicode="έ" horiz-adv-x="477" d="M201,836l7,-240l101,0l46,228M260,548C134,548 49,493 49,402C49,340 88,299 171,283C78,272 29,228 29,147C29,39 126,-17 258,-17C347,-17 421,7 474,47l-66,89C361,108 324,96 280,96C221,96 192,121 192,160C192,200 215,222 276,222l59,0l15,102l-67,0C234,324 209,348 209,383C209,419 237,439 281,439C324,439 357,427 394,406l65,82C403,529 338,548 260,548z" /><glyph unicode="=" horiz-adv-x="519" d="M48,375l422,0l0,123l-422,0M48,165l422,0l0,123l-422,0z" /><glyph unicode="℮" horiz-adv-x="946" d="M472,716C251,716 71,557 71,347C71,137 244,-16 472,-16C611,-16 718,36 791,122l-58,0C677,56 567,24 473,24C379,24 260,57 218,121l1,218l656,0C875,562 686,716 472,716M473,676C590,676 671,636 727,575l0,-196l-508,0l-1,196C269,638 356,676 473,676z" /><glyph unicode="η" horiz-adv-x="577" d="M375,548C310,548 259,521 215,469C208,505 200,527 191,545l-146,-20C58,485 67,439 67,382l0,-382l158,0l0,368C252,409 280,432 315,432C345,432 365,416 365,361l0,-566l158,-17l0,607C523,489 467,548 375,548z" /><glyph unicode="ή" horiz-adv-x="577" d="M341,596l46,228l-154,12l7,-240M375,548C310,548 259,521 215,469C208,505 200,527 191,545l-146,-20C58,485 67,439 67,382l0,-382l158,0l0,368C252,409 280,432 315,432C345,432 365,416 365,361l0,-566l158,-17l0,607C523,489 467,548 375,548z" /><glyph unicode="ð" horiz-adv-x="579" d="M357,670l55,57l-80,71l-73,-78C202,741 160,750 113,758l-32,-104C108,650 139,643 173,632l-57,-59l99,-46l55,55C326,538 354,492 372,432C338,462 296,479 240,479C119,479 32,370 32,234C32,75 141,-17 283,-17C448,-17 542,113 542,277C542,445 494,573 357,670M285,98C229,98 193,139 193,237C193,316 217,369 283,369C323,369 355,354 380,327C380,304 381,281 381,256C381,150 350,98 285,98z" /><glyph unicode="!" horiz-adv-x="240" d="M204,693l-168,0l20,-438l128,0M120,164C70,164 30,123 30,74C30,24 70,-17 120,-17C171,-17 211,24 211,74C211,123 171,164 120,164z" /><glyph unicode="¡" horiz-adv-x="240" d="M120,509C70,509 30,468 30,419C30,370 70,329 120,329C171,329 211,370 211,419C211,468 171,509 120,509M184,235l-127,0l-20,-445l168,0z" /><glyph unicode="f" horiz-adv-x="356" d="M305,642C328,642 358,637 388,622l43,103C392,745 341,759 286,759C150,759 83,680 83,578l0,-47l-80,0l0,-110l80,0l0,-421l158,0l0,421l108,0l17,110l-125,0l0,41C241,622 259,642 305,642z" /><glyph unicode="ﬁ" horiz-adv-x="598" d="M305,759C147,759 84,679 84,577l0,-46l-81,0l0,-110l81,0l0,-421l158,0l0,421l137,0l0,-421l158,0l0,531l-295,0l0,40C242,622 260,642 323,642C365,642 405,631 437,618l44,101C438,740 379,759 305,759z" /><glyph unicode="‒" horiz-adv-x="560" d="M16,272l528,0l0,122l-528,0z" /><glyph unicode="5" horiz-adv-x="536" d="M472,676l-414,0l0,-365l107,0C196,328 219,335 246,335C302,335 341,306 341,222C341,144 300,102 232,102C177,102 136,126 101,167l-88,-82C64,26 135,-17 238,-17C399,-17 503,80 503,223C503,363 420,443 309,443C277,443 243,437 209,421l0,142l245,0z" /><glyph unicode="⅝" horiz-adv-x="969" d="M644,759l-411,-799l92,-45l411,799M367,414C367,503 311,553 239,553C215,553 194,548 170,538l0,75l162,0l13,80l-283,0l0,-233l79,0C157,470 173,475 190,475C223,475 245,460 245,414C245,370 221,348 180,348C146,348 120,364 99,389l-66,-60C66,290 114,260 187,260C296,260 367,321 367,414M859,226C909,252 930,289 930,322C930,389 866,431 769,431C673,431 609,381 609,316C609,279 625,243 673,215C622,194 592,161 592,113C592,46 654,-12 767,-12C884,-12 946,48 946,114C946,160 921,197 859,226M770,355C800,355 815,339 815,315C815,295 810,276 783,257l-16,6C735,274 723,292 723,314C723,343 741,355 770,355M770,70C733,70 710,89 710,119C710,145 721,167 745,182l26,-9C813,158 829,145 829,116C829,91 811,70 770,70z" /><glyph unicode="ﬂ" horiz-adv-x="636" d="M602,113C595,110 584,108 576,108C558,108 549,119 549,149l0,607l-143,-15C371,751 334,759 290,759C151,759 84,680 84,578l0,-47l-81,0l0,-110l81,0l0,-421l158,0l0,421l83,0l18,110l-101,0l0,43C242,625 258,645 313,645C341,645 363,641 391,634l0,-501C391,35 443,-17 531,-17C568,-17 606,-10 633,1z" /><glyph unicode="ƒ" horiz-adv-x="372" d="M316,642C342,642 369,637 403,622l43,103C404,745 352,759 291,759C156,759 88,680 88,578l0,-47l-81,0l0,-110l81,0l0,-371C88,-47 48,-75 -20,-106l53,-115C157,-176 246,-113 246,60l0,361l108,0l18,110l-126,0l0,41C246,622 262,642 316,642z" /><glyph unicode="4" horiz-adv-x="565" d="M544,264l-76,0l0,160l-136,0l-17,-160l-124,0l163,379l-134,50l-192,-442l0,-105l285,0l1,-146l154,0l0,146l76,0z" /><glyph unicode="⁄" horiz-adv-x="169" d="M244,759l-411,-799l92,-45l411,799z" /><glyph unicode="g" horiz-adv-x="551" d="M514,617C450,579 382,545 264,548C125,548 31,474 31,354C31,285 58,238 126,202C88,178 63,139 63,100C63,43 110,-5 226,-5l77,0C356,-5 379,-26 379,-57C379,-91 357,-117 264,-117C168,-117 148,-97 148,-51l-142,0C6,-156 59,-222 260,-222C442,-222 538,-155 538,-46C538,43 459,108 335,108l-80,0C204,108 197,124 197,140C197,152 203,164 214,170C233,166 253,164 275,164C413,164 498,239 498,342C498,411 465,450 398,479C465,479 514,485 551,500M268,444C321,444 348,417 348,358C348,297 320,266 268,266C220,266 188,298 188,356C188,411 219,444 268,444z" /><glyph unicode="γ" horiz-adv-x="508" d="M126,548l-143,-50C47,418 118,248 178,12C142,-81 144,-141 185,-223l126,16C293,-108 298,-53 329,28l184,485l-156,34l-103,-387C224,372 173,492 126,548z" /><glyph unicode="ğ" horiz-adv-x="551" d="M275,632C380,632 440,709 448,805l-87,15C348,772 321,742 275,742C229,742 202,772 190,820l-87,-15C111,709 170,632 275,632M514,617C450,579 382,545 264,548C125,548 31,474 31,354C31,285 58,238 126,202C88,178 63,139 63,100C63,43 110,-5 226,-5l77,0C356,-5 379,-26 379,-57C379,-91 357,-117 264,-117C168,-117 148,-97 148,-51l-142,0C6,-156 59,-222 260,-222C442,-222 538,-155 538,-46C538,43 459,108 335,108l-80,0C204,108 197,124 197,140C197,152 203,164 214,170C233,166 253,164 275,164C413,164 498,239 498,342C498,411 465,450 398,479C465,479 514,485 551,500M268,444C321,444 348,417 348,358C348,297 320,266 268,266C220,266 188,298 188,356C188,411 219,444 268,444z" /><glyph unicode="ǧ" horiz-adv-x="551" d="M409,813l-133,-91l-133,91l-57,-65l142,-137l96,0l141,137M514,617C450,579 382,545 264,548C125,548 31,474 31,354C31,285 58,238 126,202C88,178 63,139 63,100C63,43 110,-5 226,-5l77,0C356,-5 379,-26 379,-57C379,-91 357,-117 264,-117C168,-117 148,-97 148,-51l-142,0C6,-156 59,-222 260,-222C442,-222 538,-155 538,-46C538,43 459,108 335,108l-80,0C204,108 197,124 197,140C197,152 203,164 214,170C233,166 253,164 275,164C413,164 498,239 498,342C498,411 465,450 398,479C465,479 514,485 551,500M268,444C321,444 348,417 348,358C348,297 320,266 268,266C220,266 188,298 188,356C188,411 219,444 268,444z" /><glyph unicode="ĝ" horiz-adv-x="551" d="M142,620l134,92l133,-92l56,65l-141,137l-97,0l-141,-137M514,617C450,579 382,545 264,548C125,548 31,474 31,354C31,285 58,238 126,202C88,178 63,139 63,100C63,43 110,-5 226,-5l77,0C356,-5 379,-26 379,-57C379,-91 357,-117 264,-117C168,-117 148,-97 148,-51l-142,0C6,-156 59,-222 260,-222C442,-222 538,-155 538,-46C538,43 459,108 335,108l-80,0C204,108 197,124 197,140C197,152 203,164 214,170C233,166 253,164 275,164C413,164 498,239 498,342C498,411 465,450 398,479C465,479 514,485 551,500M268,444C321,444 348,417 348,358C348,297 320,266 268,266C220,266 188,298 188,356C188,411 219,444 268,444z" /><glyph unicode="ġ" horiz-adv-x="551" d="M275,811C220,811 182,772 182,721C182,670 220,631 275,631C330,631 369,670 369,721C369,772 330,811 275,811M514,617C450,579 382,545 264,548C125,548 31,474 31,354C31,285 58,238 126,202C88,178 63,139 63,100C63,43 110,-5 226,-5l77,0C356,-5 379,-26 379,-57C379,-91 357,-117 264,-117C168,-117 148,-97 148,-51l-142,0C6,-156 59,-222 260,-222C442,-222 538,-155 538,-46C538,43 459,108 335,108l-80,0C204,108 197,124 197,140C197,152 203,164 214,170C233,166 253,164 275,164C413,164 498,239 498,342C498,411 465,450 398,479C465,479 514,485 551,500M268,444C321,444 348,417 348,358C348,297 320,266 268,266C220,266 188,298 188,356C188,411 219,444 268,444z" /><glyph unicode="ß" horiz-adv-x="605" d="M297,759C144,759 61,673 61,533l0,-533l158,0l0,538C219,610 243,647 293,647C330,647 354,626 354,590C354,506 266,510 266,405C266,275 424,278 424,169C424,126 401,105 365,105C343,105 328,109 313,117l-47,-107C297,-6 338,-17 385,-17C498,-17 587,51 587,166C587,342 403,356 403,431C403,490 504,509 504,609C504,689 431,759 297,759z" /><glyph unicode="`" horiz-adv-x="340" d="M92,835l-62,-118l236,-95l44,81z" /><glyph unicode="̀" horiz-adv-x="0" d="M-248,835l-62,-118l236,-95l44,81z" /><glyph unicode="&gt;" horiz-adv-x="519" d="M84,576l-50,-111l316,-132l-316,-128l50,-115l400,173l0,139z" /><glyph unicode="≥" horiz-adv-x="519" d="M84,653l-50,-111l316,-132l-316,-128l50,-115l400,173l0,139M48,0l422,0l0,122l-422,0z" /><glyph unicode="«" horiz-adv-x="628" d="M226,556l-190,-222l0,-100l190,-221l97,65l-129,207l129,206M494,556l-189,-222l0,-100l189,-221l98,65l-129,207l129,206z" /><glyph unicode="»" horiz-adv-x="625" d="M134,556l-98,-65l129,-206l-129,-207l98,-65l189,221l0,100M400,556l-98,-65l129,-206l-129,-207l98,-65l189,221l0,100z" /><glyph unicode="‹" horiz-adv-x="359" d="M226,556l-190,-222l0,-100l190,-221l97,65l-129,207l129,206z" /><glyph unicode="›" horiz-adv-x="359" d="M134,556l-98,-65l129,-206l-129,-207l98,-65l189,221l0,100z" /><glyph unicode="h" horiz-adv-x="573" d="M372,548C309,548 262,523 219,474l0,284l-158,-16l0,-742l158,0l0,364C246,407 276,432 311,432C341,432 361,417 361,361l0,-361l158,0l0,388C519,489 463,548 372,548z" /><glyph unicode="ħ" horiz-adv-x="582" d="M380,548C318,548 270,523 227,474l0,122l133,0l0,92l-133,0l0,70l-158,-16l0,-54l-61,0l0,-92l61,0l0,-596l158,0l0,364C255,407 285,432 319,432C349,432 370,417 370,361l0,-361l158,0l0,388C528,489 472,548 380,548z" /><glyph unicode="ĥ" horiz-adv-x="573" d="M287,888l133,-84l56,65l-141,129l-96,0l-142,-129l57,-65M372,548C309,548 262,523 219,474l0,284l-158,-16l0,-742l158,0l0,364C246,407 276,432 311,432C341,432 361,417 361,361l0,-361l158,0l0,388C519,489 463,548 372,548z" /><glyph unicode="̉" horiz-adv-x="0" d="M-202,605l94,0l0,52C-54,667 -24,699 -24,751C-24,810 -67,852 -148,852C-195,852 -229,842 -257,826l26,-66C-211,768 -194,773 -171,773C-147,773 -131,763 -131,742C-131,716 -153,707 -202,704z" /><glyph unicode="˝" horiz-adv-x="430" d="M126,827l-96,-188l70,-38l126,169M297,818l-105,-182l67,-42l135,162z" /><glyph unicode="-" horiz-adv-x="407" d="M44,252l319,0l0,122l-319,0z" /><glyph unicode="i" horiz-adv-x="280" d="M139,811C85,811 46,772 46,721C46,670 85,631 139,631C195,631 233,670 233,721C233,772 195,811 139,811M219,531l-158,0l0,-531l158,0z" /><glyph unicode="í" horiz-adv-x="280" d="M212,835l-218,-132l44,-81l236,95M219,531l-158,0l0,-531l158,0z" /><glyph unicode="ĭ" horiz-adv-x="280" d="M139,632C244,632 304,709 312,805l-87,15C212,772 185,742 139,742C93,742 66,772 54,820l-87,-15C-25,709 34,632 139,632M219,531l-158,0l0,-531l158,0z" /><glyph unicode="î" horiz-adv-x="280" d="M6,620l134,92l133,-92l56,65l-141,137l-97,0l-141,-137M219,531l-158,0l0,-531l158,0z" /><glyph unicode="ï" horiz-adv-x="280" d="M24,799C-21,799 -57,764 -57,720C-57,676 -21,641 24,641C70,641 105,676 105,720C105,764 70,799 24,799M255,799C211,799 175,764 175,720C175,676 211,641 255,641C302,641 336,676 336,720C336,764 302,799 255,799M219,531l-158,0l0,-531l158,0z" /><glyph unicode="ì" horiz-adv-x="280" d="M72,835l-62,-118l236,-95l44,81M219,531l-158,0l0,-531l158,0z" /><glyph unicode="ĳ" horiz-adv-x="560" d="M139,811C85,811 46,772 46,721C46,670 85,631 139,631C195,631 233,670 233,721C233,772 195,811 139,811M420,811C365,811 327,772 327,721C327,670 365,631 420,631C475,631 514,670 514,721C514,772 475,811 420,811M219,531l-158,0l0,-531l158,0M499,531l-158,0l0,-481C341,-47 301,-75 233,-106l53,-115C410,-176 499,-113 499,60z" /><glyph unicode="ī" horiz-adv-x="280" d="M292,655l0,110l-305,0l0,-110M219,531l-158,0l0,-531l158,0z" /><glyph unicode="∞" horiz-adv-x="898" d="M649,542C569,542 512,506 456,425C412,492 345,542 255,542C97,542 33,433 33,316C33,200 98,89 250,89C329,89 387,125 441,203C487,138 555,89 643,89C801,89 865,198 865,315C865,431 800,542 649,542M270,209C219,209 189,249 189,316C189,383 220,423 271,423C335,423 373,370 395,320C359,252 325,209 270,209M627,208C565,208 527,258 502,308C540,378 572,422 628,422C679,422 709,382 709,315C709,248 678,208 627,208z" /><glyph unicode="∫" horiz-adv-x="395" d="M309,862C181,862 117,792 117,669l0,-706C117,-85 99,-105 60,-105C34,-105 11,-100 -22,-85l-43,-103C-25,-208 18,-222 80,-222C189,-222 274,-165 274,-31l0,706C274,724 291,746 334,746C360,746 385,740 417,726l43,102C417,848 370,862 309,862z" /><glyph unicode="į" horiz-adv-x="280" d="M139,631C194,631 233,670 233,721C233,772 194,811 139,811C84,811 46,772 46,721C46,670 84,631 139,631M61,10C-1,-23 -38,-67 -38,-129C-38,-201 24,-246 109,-246C135,-246 157,-243 179,-238l11,98C167,-145 148,-148 129,-148C93,-148 76,-132 76,-102C76,-74 95,-37 194,0l25,0l0,531l-158,0z" /><glyph unicode="ι" horiz-adv-x="279" d="M212,531l-158,0l0,-372C54,50 109,1 209,-17l46,114C223,112 212,131 212,179z" /><glyph unicode="ϊ" horiz-adv-x="279" d="M17,799C-28,799 -64,764 -64,720C-64,676 -28,641 17,641C63,641 98,676 98,720C98,764 63,799 17,799M248,799C204,799 168,764 168,720C168,676 204,641 248,641C295,641 329,676 329,720C329,764 295,799 248,799M212,531l-158,0l0,-372C54,50 109,1 209,-17l46,114C223,112 212,131 212,179z" /><glyph unicode="ΐ" horiz-adv-x="279" d="M83,948l6,-207l87,0l39,197M1,759C-45,759 -80,724 -80,680C-80,636 -45,601 1,601C45,601 82,636 82,680C82,724 45,759 1,759M264,759C218,759 183,724 183,680C183,636 218,601 264,601C308,601 345,636 345,680C345,724 308,759 264,759M212,531l-158,0l0,-372C54,50 109,1 209,-17l46,114C223,112 212,131 212,179z" /><glyph unicode="ί" horiz-adv-x="279" d="M76,836l7,-240l101,0l46,228M212,531l-158,0l0,-372C54,50 109,1 209,-17l46,114C223,112 212,131 212,179z" /><glyph unicode="ĩ" horiz-adv-x="280" d="M198,635C257,635 302,685 328,752l-79,39C233,762 219,747 197,747C181,747 169,755 151,768C130,782 112,792 81,792C21,792 -23,738 -48,674l79,-38C47,664 60,680 84,680C101,680 113,671 131,658C151,643 170,635 198,635M219,531l-158,0l0,-531l158,0z" /><glyph unicode="j" horiz-adv-x="280" d="M140,811C85,811 47,772 47,721C47,670 85,631 140,631C195,631 234,670 234,721C234,772 195,811 140,811M219,531l-158,0l0,-481C61,-47 21,-75 -47,-106l53,-115C130,-176 219,-113 219,60z" /><glyph unicode="ĵ" horiz-adv-x="280" d="M7,620l134,92l133,-92l56,65l-141,137l-97,0l-141,-137M219,531l-158,0l0,-481C61,-47 21,-75 -47,-106l53,-115C130,-176 219,-113 219,60z" /><glyph unicode="k" horiz-adv-x="551" d="M219,759l-158,-17l0,-742l158,0M547,531l-161,0l-162,-241l158,-290l178,0l-174,298z" /><glyph unicode="κ" horiz-adv-x="552" d="M544,489l-133,58l-182,-266l134,-204C403,11 446,-11 508,-17l53,118C539,109 524,119 508,141l-112,145M191,545l-146,-20C56,490 67,439 67,382l0,-382l158,0l0,345C225,456 210,507 191,545z" /><glyph unicode="ĸ" horiz-adv-x="550" d="M219,531l-158,0l0,-531l158,0M546,531l-161,0l-163,-251l159,-280l178,0l-174,288z" /><glyph unicode="l" horiz-adv-x="300" d="M200,-17C239,-17 273,-9 296,1l-30,112C259,110 250,108 240,108C221,108 212,119 212,141l0,618l-158,-17l0,-607C54,38 108,-17 200,-17z" /><glyph unicode="ĺ" horiz-adv-x="300" d="M214,1005l-221,-125l40,-80l240,87M200,-17C239,-17 273,-9 296,1l-30,112C259,110 250,108 240,108C221,108 212,119 212,141l0,618l-158,-17l0,-607C54,38 108,-17 200,-17z" /><glyph unicode="λ" horiz-adv-x="529" d="M81,758l-19,-108C164,634 196,607 225,531l-56,0l-161,-512l156,-36l97,427C299,180 331,86 395,-17l152,50C476,129 443,229 380,496C337,682 253,733 81,758z" /><glyph unicode="ľ" horiz-adv-x="369" d="M200,-17C239,-17 273,-9 296,1l-30,112C259,110 250,108 240,108C221,108 212,119 212,141l0,618l-158,-17l0,-607C54,38 108,-17 200,-17M339,526l-87,13l23,219l119,-17z" /><glyph unicode="ŀ" horiz-adv-x="442" d="M200,-17C239,-17 273,-9 296,1l-30,112C259,110 250,108 240,108C221,108 212,119 212,141l0,618l-158,-17l0,-607C54,38 108,-17 200,-17M356,466C301,466 262,427 262,376C262,326 301,287 356,287C411,287 449,326 449,376C449,427 411,466 356,466z" /><glyph unicode="&lt;" horiz-adv-x="519" d="M434,576l-400,-174l0,-139l400,-173l50,115l-316,128l316,132z" /><glyph unicode="≤" horiz-adv-x="519" d="M434,653l-400,-174l0,-139l400,-173l50,115l-316,128l316,132M48,0l422,0l0,122l-422,0z" /><glyph unicode="¬" horiz-adv-x="531" d="M483,390l-435,0l0,-123l304,0l0,-153l131,0z" /><glyph unicode="ſ" horiz-adv-x="356" d="M286,759C150,759 83,680 83,578l0,-47l-80,0l0,-110l80,0l0,-421l158,0l0,572C241,622 259,642 305,642C328,642 358,637 388,622l43,103C392,745 341,759 286,759z" /><glyph unicode="◊" horiz-adv-x="576" d="M375,676l-174,0l-174,-338l174,-338l174,0l175,338M288,565l104,-227l-104,-228l-104,229z" /><glyph unicode="ł" horiz-adv-x="358" d="M268,108C249,108 241,119 241,141l0,222l121,74l-52,86l-69,-41l0,277l-158,-17l0,-355l-92,-58l53,-86l39,24l0,-132C83,38 136,-17 229,-17C267,-17 301,-9 325,1l-31,112C287,110 279,108 268,108z" /><glyph unicode="m" horiz-adv-x="841" d="M648,548C580,548 531,520 489,464C468,518 423,548 364,548C299,548 250,521 210,468l-12,63l-137,0l0,-531l158,0l0,363C242,407 267,432 300,432C324,432 345,417 345,361l0,-361l158,0l0,363C526,407 550,432 584,432C608,432 628,417 628,361l0,-361l158,0l0,388C786,489 730,548 648,548z" /><glyph unicode="¯" horiz-adv-x="365" d="M335,655l0,110l-305,0l0,-110z" /><glyph unicode="−" horiz-adv-x="519" d="M48,271l422,0l0,122l-422,0z" /><glyph unicode="×" horiz-adv-x="519" d="M376,510l-119,-121l-114,121l-87,-87l115,-119l-115,-114l87,-87l118,121l115,-121l87,87l-116,119l116,114z" /><glyph unicode="n" horiz-adv-x="573" d="M372,548C305,548 254,520 210,467l-12,64l-137,0l0,-531l158,0l0,363C246,407 276,432 311,432C342,432 361,417 361,361l0,-361l158,0l0,388C519,489 464,548 372,548z" /><glyph unicode="ń" horiz-adv-x="573" d="M426,717l-62,118l-218,-132l44,-81M372,548C305,548 254,520 210,467l-12,64l-137,0l0,-531l158,0l0,363C246,407 276,432 311,432C342,432 361,417 361,361l0,-361l158,0l0,388C519,489 464,548 372,548z" /><glyph unicode="ŉ" horiz-adv-x="698" d="M102,760C63,760 33,729 33,692C33,667 45,648 62,635l-24,-100l69,0l41,82C165,652 172,669 172,692C172,731 142,760 102,760M496,548C430,548 379,520 335,468l-12,63l-138,0l0,-531l158,0l0,363C371,407 400,432 436,432C466,432 486,417 486,361l0,-361l158,0l0,388C644,489 588,548 496,548z" /><glyph unicode="ň" horiz-adv-x="573" d="M341,611l141,137l-56,65l-133,-91l-133,91l-57,-65l142,-137M372,548C305,548 254,520 210,467l-12,64l-137,0l0,-531l158,0l0,363C246,407 276,432 311,432C342,432 361,417 361,361l0,-361l158,0l0,388C519,489 464,548 372,548z" /><glyph unicode="9" horiz-adv-x="560" d="M277,690C136,690 26,598 26,457C26,318 114,234 219,234C283,234 327,260 359,299C332,179 246,123 76,82l32,-110C397,31 529,152 529,428C529,582 444,690 277,690M268,345C222,345 185,374 185,462C185,538 221,577 277,577C344,577 369,531 368,405C341,366 306,345 268,345z" /><glyph unicode="≠" horiz-adv-x="519" d="M470,375l0,123l-56,0l49,83l-80,44l-76,-127l-259,0l0,-123l185,0l-52,-87l-133,0l0,-123l60,0l-52,-86l81,-45l78,131l255,0l0,123l-182,0l52,87z" /><glyph unicode="ñ" horiz-adv-x="573" d="M236,680C253,680 265,671 283,658C303,643 322,635 350,635C409,635 454,685 480,752l-79,39C385,762 371,747 349,747C333,747 321,755 303,768C282,782 264,792 233,792C173,792 129,738 104,674l79,-38C199,664 212,680 236,680M372,548C305,548 254,520 210,467l-12,64l-137,0l0,-531l158,0l0,363C246,407 276,432 311,432C342,432 361,417 361,361l0,-361l158,0l0,388C519,489 464,548 372,548z" /><glyph unicode="ν" horiz-adv-x="508" d="M126,548l-143,-50C54,424 105,243 156,0l185,0l172,513l-153,34l-108,-420C220,352 174,490 126,548z" /><glyph unicode="#" horiz-adv-x="557" d="M542,440l0,105l-56,0l17,131l-131,0l-17,-131l-100,0l17,131l-131,0l-17,-131l-72,0l0,-105l58,0l-25,-192l-70,0l0,-105l56,0l-19,-143l131,0l19,143l100,0l-19,-143l131,0l19,143l72,0l0,105l-58,0l25,192M316,248l-100,0l25,192l100,0z" /><glyph unicode="o" horiz-adv-x="584" d="M292,548C130,548 32,436 32,266C32,87 131,-17 292,-17C454,-17 552,95 552,265C552,444 454,548 292,548M292,432C356,432 388,383 388,265C388,150 356,99 292,99C228,99 196,148 196,266C196,381 228,432 292,432z" /><glyph unicode="ó" horiz-adv-x="584" d="M364,835l-218,-132l44,-81l236,95M292,548C130,548 32,436 32,266C32,87 131,-17 292,-17C454,-17 552,95 552,265C552,444 454,548 292,548M292,432C356,432 388,383 388,265C388,150 356,99 292,99C228,99 196,148 196,266C196,381 228,432 292,432z" /><glyph unicode="ŏ" horiz-adv-x="584" d="M291,632C396,632 456,709 464,805l-87,15C364,772 337,742 291,742C245,742 218,772 206,820l-87,-15C127,709 186,632 291,632M292,548C130,548 32,436 32,266C32,87 131,-17 292,-17C454,-17 552,95 552,265C552,444 454,548 292,548M292,432C356,432 388,383 388,265C388,150 356,99 292,99C228,99 196,148 196,266C196,381 228,432 292,432z" /><glyph unicode="ô" horiz-adv-x="584" d="M158,620l134,92l133,-92l56,65l-141,137l-97,0l-141,-137M292,548C130,548 32,436 32,266C32,87 131,-17 292,-17C454,-17 552,95 552,265C552,444 454,548 292,548M292,432C356,432 388,383 388,265C388,150 356,99 292,99C228,99 196,148 196,266C196,381 228,432 292,432z" /><glyph unicode="ö" horiz-adv-x="584" d="M176,799C131,799 95,764 95,720C95,676 131,641 176,641C222,641 257,676 257,720C257,764 222,799 176,799M407,799C363,799 327,764 327,720C327,676 363,641 407,641C454,641 488,676 488,720C488,764 454,799 407,799M292,548C130,548 32,436 32,266C32,87 131,-17 292,-17C454,-17 552,95 552,265C552,444 454,548 292,548M292,432C356,432 388,383 388,265C388,150 356,99 292,99C228,99 196,148 196,266C196,381 228,432 292,432z" /><glyph unicode="œ" horiz-adv-x="909" d="M880,276C880,448 787,548 637,548C564,548 509,518 469,469C426,519 367,548 292,548C130,548 32,435 32,266C32,87 130,-17 291,-17C368,-17 426,12 469,65C511,13 570,-17 654,-17C740,-17 808,15 861,57l-65,88C750,113 712,98 669,98C603,98 558,124 548,219l329,0C879,235 880,259 880,276M724,314l-176,0C555,409 586,443 640,443C701,443 724,393 724,321M291,99C228,99 196,148 196,266C196,381 228,432 292,432C355,432 387,381 387,266C387,149 355,99 291,99z" /><glyph unicode="˛" horiz-adv-x="292" d="M268,50C144,16 61,-36 61,-129C61,-201 122,-246 207,-246C234,-246 256,-243 277,-238l11,98C265,-145 247,-148 227,-148C192,-148 174,-132 174,-102C174,-74 194,-37 292,0z" /><glyph unicode="ò" horiz-adv-x="584" d="M224,835l-62,-118l236,-95l44,81M292,548C130,548 32,436 32,266C32,87 131,-17 292,-17C454,-17 552,95 552,265C552,444 454,548 292,548M292,432C356,432 388,383 388,265C388,150 356,99 292,99C228,99 196,148 196,266C196,381 228,432 292,432z" /><glyph unicode="ơ" horiz-adv-x="625" d="M635,521C635,563 626,590 616,609l-101,-15C522,574 527,556 527,527C527,494 515,477 484,472C439,521 374,548 292,548C130,548 32,436 32,266C32,87 131,-17 292,-17C454,-17 552,95 552,265C552,316 544,361 529,399C596,411 635,451 635,521M292,99C228,99 196,148 196,266C196,381 228,432 292,432C356,432 388,383 388,265C388,150 356,99 292,99z" /><glyph unicode="ő" horiz-adv-x="584" d="M272,827l-96,-188l70,-38l126,169M443,818l-105,-182l67,-42l135,162M292,548C130,548 32,436 32,266C32,87 131,-17 292,-17C454,-17 552,95 552,265C552,444 454,548 292,548M292,432C356,432 388,383 388,265C388,150 356,99 292,99C228,99 196,148 196,266C196,381 228,432 292,432z" /><glyph unicode="ō" horiz-adv-x="584" d="M444,655l0,110l-305,0l0,-110M292,548C130,548 32,436 32,266C32,87 131,-17 292,-17C454,-17 552,95 552,265C552,444 454,548 292,548M292,432C356,432 388,383 388,265C388,150 356,99 292,99C228,99 196,148 196,266C196,381 228,432 292,432z" /><glyph unicode="ω" horiz-adv-x="774" d="M674,531l-144,0C561,436 583,347 583,250C583,134 554,99 516,99C483,99 460,117 460,187l0,187l-146,-19l0,-168C314,112 291,99 259,99C216,99 192,141 192,249C192,347 213,436 243,531l-143,0C65,454 37,360 37,242C37,61 119,-17 233,-17C319,-17 365,17 387,101C405,18 456,-17 539,-17C653,-17 737,63 737,242C737,360 708,455 674,531z" /><glyph unicode="ώ" horiz-adv-x="774" d="M330,836l7,-240l101,0l46,228M674,531l-144,0C561,436 583,347 583,250C583,134 554,99 516,99C483,99 460,117 460,187l0,187l-146,-19l0,-168C314,112 291,99 259,99C216,99 192,141 192,249C192,347 213,436 243,531l-143,0C65,454 37,360 37,242C37,61 119,-17 233,-17C319,-17 365,17 387,101C405,18 456,-17 539,-17C653,-17 737,63 737,242C737,360 708,455 674,531z" /><glyph unicode="ο" horiz-adv-x="584" d="M292,548C130,548 32,436 32,266C32,87 131,-17 292,-17C454,-17 552,95 552,265C552,444 454,548 292,548M292,432C356,432 388,383 388,265C388,150 356,99 292,99C228,99 196,148 196,266C196,381 228,432 292,432z" /><glyph unicode="ό" horiz-adv-x="584" d="M234,836l7,-240l101,0l46,228M292,548C130,548 32,436 32,266C32,87 131,-17 292,-17C454,-17 552,95 552,265C552,444 454,548 292,548M292,432C356,432 388,383 388,265C388,150 356,99 292,99C228,99 196,148 196,266C196,381 228,432 292,432z" /><glyph unicode="1" horiz-adv-x="464" d="M382,676l-141,0l-228,-138l69,-105l145,89l0,-522l155,0z" /><glyph unicode="⅛" horiz-adv-x="969" d="M644,759l-411,-799l92,-45l411,799M300,272l0,421l-107,0l-154,-89l53,-78l91,57l0,-311M859,226C909,252 930,289 930,322C930,389 866,431 769,431C673,431 609,381 609,316C609,279 625,243 673,215C622,194 592,161 592,113C592,46 654,-12 767,-12C884,-12 946,48 946,114C946,160 921,197 859,226M770,355C800,355 815,339 815,315C815,295 810,276 783,257l-16,6C735,274 723,292 723,314C723,343 741,355 770,355M770,70C733,70 710,89 710,119C710,145 721,167 745,182l26,-9C813,158 829,145 829,116C829,91 811,70 770,70z" /><glyph unicode="½" horiz-adv-x="969" d="M644,759l-411,-799l92,-45l411,799M300,693l-107,0l-154,-89l53,-78l91,57l0,-311l117,0M763,431C694,431 640,399 605,354l68,-53C698,330 720,343 751,343C781,343 801,325 801,295C801,251 767,214 622,82l0,-82l298,0l12,89l-177,0C891,199 922,245 922,305C922,371 869,431 763,431z" /><glyph unicode="¼" horiz-adv-x="969" d="M644,759l-411,-799l92,-45l411,799M300,272l0,421l-107,0l-154,-89l53,-78l91,57l0,-311M943,170l-46,0l0,95l-90,0l-20,-95l-73,0l100,225l-99,36l-121,-269l0,-78l191,0l0,-84l112,0l0,84l46,0z" /><glyph unicode="ª" horiz-adv-x="500" d="M249,528C118,528 47,480 47,391C47,317 101,264 187,264C236,264 285,280 315,322C339,285 374,271 423,267l29,92C433,365 425,377 425,405l0,142C425,644 371,693 241,693C193,693 131,682 77,662l32,-90C151,585 194,593 219,593C269,593 286,581 286,539l0,-11M232,364C204,364 191,379 191,402C191,436 214,453 263,453l23,0l0,-63C273,375 255,364 232,364M51,122l0,-122l409,0l0,122z" /><glyph unicode="º" horiz-adv-x="500" d="M250,693C118,693 37,609 37,479C37,341 119,264 251,264C384,264 464,349 464,478C464,616 382,693 250,693M250,591C296,591 318,560 318,478C318,400 296,366 251,366C205,366 183,398 183,479C183,557 205,591 250,591M39,0l422,0l0,122l-422,0z" /><glyph unicode="ø" horiz-adv-x="584" d="M438,510l42,123l-116,34l-39,-121C314,547 303,548 292,548C130,548 32,436 32,266C32,151 73,67 145,21l-39,-122l115,-34l37,120C269,-16 280,-17 292,-17C454,-17 552,95 552,265C552,381 511,465 438,510M292,432l16,0l-100,-300C192,156 183,197 183,266C183,381 222,432 292,432M292,99l-16,0l99,300C392,375 401,334 401,265C401,150 363,99 292,99z" /><glyph unicode="ǿ" horiz-adv-x="584" d="M426,717l-62,118l-218,-132l44,-81M438,510l42,123l-116,34l-39,-121C314,547 303,548 292,548C130,548 32,436 32,266C32,151 73,67 145,21l-39,-122l115,-34l37,120C269,-16 280,-17 292,-17C454,-17 552,95 552,265C552,381 511,465 438,510M292,432l16,0l-100,-300C192,156 183,197 183,266C183,381 222,432 292,432M292,99l-16,0l99,300C392,375 401,334 401,265C401,150 363,99 292,99z" /><glyph unicode="õ" horiz-adv-x="584" d="M350,635C409,635 454,685 480,752l-79,39C385,762 371,747 349,747C333,747 321,755 303,768C282,782 264,792 233,792C173,792 129,738 104,674l79,-38C199,664 212,680 236,680C253,680 265,671 283,658C303,643 322,635 350,635M292,548C130,548 32,436 32,266C32,87 131,-17 292,-17C454,-17 552,95 552,265C552,444 454,548 292,548M292,432C356,432 388,383 388,265C388,150 356,99 292,99C228,99 196,148 196,266C196,381 228,432 292,432z" /><glyph unicode="p" horiz-adv-x="591" d="M361,548C308,548 252,527 208,472l-8,59l-139,0l0,-753l158,17l0,243C252,1 296,-17 348,-17C479,-17 559,103 559,267C559,439 498,548 361,548M299,99C266,99 241,114 219,146l0,224C242,409 274,432 310,432C363,432 395,397 395,265C395,146 358,99 299,99z" /><glyph unicode="¶" horiz-adv-x="788" d="M328,693C162,693 65,612 65,478C65,355 144,267 304,263l0,-485l138,18l0,787l92,0l0,-805l138,18l0,897z" /><glyph unicode="(" horiz-adv-x="325" d="M212,859C111,720 18,589 18,350C18,111 111,-20 212,-159l101,68C220,42 178,165 178,350C178,535 220,658 313,791z" /><glyph unicode=")" horiz-adv-x="325" d="M113,859l-101,-68C104,658 147,535 147,350C147,165 104,42 12,-91l101,-68C213,-20 306,111 306,350C306,589 213,720 113,859z" /><glyph unicode="∂" horiz-adv-x="541" d="M117,710l-35,-108C237,563 320,505 349,377C317,420 274,445 210,445C103,445 18,355 18,220C18,73 121,-17 261,-17C425,-17 510,107 510,262C510,517 399,651 117,710M262,95C207,95 176,143 176,215C176,304 215,330 257,330C295,330 323,311 347,271C347,158 329,95 262,95z" /><glyph unicode="%" horiz-adv-x="859" d="M614,720l-463,-698l97,-62l463,698M207,690C108,690 29,620 29,510C29,400 108,330 207,330C307,330 385,400 385,510C385,620 307,690 207,690M207,595C259,595 271,552 271,510C271,467 259,425 207,425C155,425 142,468 142,510C142,553 155,595 207,595M652,342C552,342 473,273 473,163C473,52 552,-17 652,-17C752,-17 830,52 830,163C830,273 752,342 652,342M652,247C704,247 716,205 716,163C716,120 704,77 652,77C600,77 587,121 587,163C587,205 600,247 652,247z" /><glyph unicode="." horiz-adv-x="240" d="M120,164C69,164 29,123 29,74C29,24 69,-17 120,-17C170,-17 210,24 210,74C210,123 170,164 120,164z" /><glyph unicode="·" horiz-adv-x="240" d="M120,398C69,398 29,357 29,308C29,258 69,217 120,217C170,217 210,258 210,308C210,357 170,398 120,398z" /><glyph unicode="‰" horiz-adv-x="1245" d="M614,720l-463,-698l97,-62l463,698M207,690C108,690 29,620 29,510C29,400 108,330 207,330C307,330 385,400 385,510C385,620 307,690 207,690M207,595C259,595 271,552 271,510C271,467 259,425 207,425C155,425 142,468 142,510C142,553 155,595 207,595M652,342C552,342 473,273 473,163C473,52 552,-17 652,-17C752,-17 830,52 830,163C830,273 752,342 652,342M1038,342C938,342 859,273 859,163C859,52 938,-17 1038,-17C1138,-17 1215,52 1215,163C1215,273 1138,342 1038,342M652,247C704,247 716,205 716,163C716,120 704,77 652,77C600,77 587,121 587,163C587,205 600,247 652,247M1038,247C1090,247 1102,205 1102,163C1102,120 1090,77 1038,77C986,77 973,121 973,163C973,205 986,247 1038,247z" /><glyph unicode="φ" horiz-adv-x="755" d="M717,270C717,456 645,548 502,548C372,548 301,465 301,325l0,-233C220,104 190,152 190,254C190,355 218,444 248,531l-150,0C67,453 37,355 37,242C37,95 118,1 301,-15l0,-207l148,17l0,190C631,1 717,89 717,270M449,93l0,236C449,424 470,441 504,441C545,441 564,410 564,268C564,149 539,103 449,93z" /><glyph unicode="π" horiz-adv-x="612" d="M590,413l0,118l-443,0C70,531 37,524 -1,508l28,-106C52,410 66,412 98,413l0,-413l155,0l0,413l118,0l0,-255C371,49 424,1 526,-17l46,114C540,112 529,131 529,179l0,234z" /><glyph unicode="+" horiz-adv-x="531" d="M331,549l-131,0l0,-156l-152,0l0,-122l152,0l0,-156l131,0l0,156l151,0l0,122l-151,0z" /><glyph unicode="±" horiz-adv-x="531" d="M331,622l-131,0l0,-157l-151,0l0,-122l151,0l0,-155l131,0l0,155l152,0l0,122l-152,0M55,0l422,0l0,122l-422,0z" /><glyph unicode="⏼" horiz-adv-x="875" d="M438,759C213,759 50,590 50,372C50,150 213,-16 438,-16C660,-16 825,150 825,372C825,590 660,759 438,759M438,674C606,674 720,545 720,372C720,196 606,70 438,70C266,70 155,196 155,372C155,545 266,674 438,674M391,581l0,-417l95,0l0,417z" /><glyph unicode="⏽" horiz-adv-x="294" d="M100,607l0,-517l94,0l0,517z" /><glyph unicode="⏾" horiz-adv-x="682" d="M582,216C298,216 186,326 186,612C136,561 100,490 100,394C100,246 208,130 373,130C465,130 535,164 582,216z" /><glyph unicode="∏" horiz-adv-x="605" d="M575,556l0,120l-544,0l0,-120l67,0l0,-778l150,17l0,761l112,0l0,-778l149,17l0,761z" /><glyph unicode="ψ" horiz-adv-x="780" d="M738,247C738,359 725,450 708,531l-152,0C572,438 582,336 582,253C582,159 547,109 467,97l0,434l-150,0l0,-435C234,106 207,146 207,213l0,318l-155,0l0,-327C52,83 136,-2 317,-16l0,-206l150,17l0,190C629,-1 738,81 738,247z" /><glyph unicode="q" horiz-adv-x="594" d="M395,531l-8,-46C350,527 305,548 250,548C117,548 32,431 32,267C32,95 99,-17 234,-17C299,-17 344,11 375,51l0,-256l158,-17l0,753M283,99C232,99 196,134 196,266C196,385 236,433 293,433C328,433 351,416 375,388l0,-229C350,119 321,99 283,99z" /><glyph unicode="?" horiz-adv-x="481" d="M248,710C145,710 71,670 14,603l101,-78C151,566 191,586 232,586C276,586 302,565 302,529C302,447 143,459 143,286l0,-31l144,0l0,25C287,392 467,381 467,543C467,632 394,710 248,710M217,164C167,164 127,123 127,74C127,24 167,-17 217,-17C267,-17 307,24 307,74C307,123 267,164 217,164z" /><glyph unicode="¿" horiz-adv-x="481" d="M265,329C315,329 355,370 355,419C355,468 315,509 265,509C214,509 174,468 174,419C174,370 214,329 265,329M233,-222C336,-222 411,-182 467,-115l-100,78C331,-78 290,-98 249,-98C205,-98 180,-77 180,-41C180,41 338,29 338,200l0,36l-144,0l0,-30C194,96 14,107 14,-55C14,-144 88,-222 233,-222z" /><glyph unicode="&quot;" horiz-adv-x="439" d="M67,414l104,0l20,279l-143,0M268,414l105,0l19,279l-143,0z" /><glyph unicode="„" horiz-adv-x="448" d="M121,142C73,142 36,108 36,62C36,31 50,9 73,-7l-42,-156l81,0l64,131C197,12 205,35 205,61C205,108 169,142 121,142M326,142C279,142 241,108 241,62C241,31 255,9 278,-7l-41,-156l81,0l63,131C402,12 410,35 410,61C410,108 374,142 326,142z" /><glyph unicode="“" horiz-adv-x="448" d="M122,461C170,461 207,496 207,541C207,572 193,594 170,610l42,157l-82,0l-63,-132C46,592 38,568 38,542C38,496 74,461 122,461M327,461C375,461 412,496 412,541C412,572 398,594 376,610l41,157l-81,0l-63,-132C252,592 244,568 244,542C244,496 280,461 327,461z" /><glyph unicode="”" horiz-adv-x="448" d="M121,766C73,766 36,731 36,686C36,654 50,633 73,617l-42,-157l81,0l64,132C197,635 205,659 205,685C205,731 169,766 121,766M326,766C279,766 241,731 241,686C241,654 255,633 278,617l-41,-157l81,0l63,132C402,635 410,659 410,685C410,731 374,766 326,766z" /><glyph unicode="‘" horiz-adv-x="243" d="M122,461C170,461 207,496 207,541C207,572 193,594 170,610l42,157l-82,0l-63,-132C46,592 38,568 38,542C38,496 74,461 122,461z" /><glyph unicode="’" horiz-adv-x="243" d="M121,766C73,766 36,731 36,686C36,654 50,633 73,617l-42,-157l81,0l64,132C197,635 205,659 205,685C205,731 169,766 121,766z" /><glyph unicode="‚" horiz-adv-x="243" d="M121,142C73,142 36,108 36,62C36,31 50,9 73,-7l-42,-156l81,0l64,131C197,12 205,35 205,61C205,108 169,142 121,142z" /><glyph unicode="'" horiz-adv-x="238" d="M67,414l104,0l20,279l-143,0z" /><glyph unicode="r" horiz-adv-x="400" d="M349,546C288,546 236,502 212,428l-14,103l-137,0l0,-531l158,0l0,267C237,346 264,393 329,393C346,393 360,390 377,386l25,153C384,544 369,546 349,546z" /><glyph unicode="ŕ" horiz-adv-x="400" d="M366,717l-62,118l-218,-132l44,-81M349,546C288,546 236,502 212,428l-14,103l-137,0l0,-531l158,0l0,267C237,346 264,393 329,393C346,393 360,390 377,386l25,153C384,544 369,546 349,546z" /><glyph unicode="√" horiz-adv-x="560" d="M762,881l-306,0l-191,-739l-107,363l-145,-44l168,-461l180,0l212,761l189,0z" /><glyph unicode="ř" horiz-adv-x="400" d="M281,611l141,137l-56,65l-133,-91l-133,91l-57,-65l142,-137M212,428l-14,103l-137,0l0,-531l158,0l0,267C237,346 264,393 329,393C346,393 360,390 377,386l25,153C384,544 369,546 349,546C288,546 236,502 212,428z" /><glyph unicode="®" horiz-adv-x="637" d="M319,759C162,759 44,643 44,484C44,326 162,212 319,212C476,212 593,326 593,484C593,643 476,759 319,759M319,279C204,279 122,360 122,484C122,609 204,692 319,692C435,692 515,609 515,484C515,360 435,279 319,279M432,546C432,606 387,634 299,634l-84,0l0,-282l71,0l0,102l22,0l58,-102l82,0l-74,117C408,482 432,508 432,546M286,580l28,0C343,580 359,570 359,548C359,522 341,512 316,512l-30,0z" /><glyph unicode="ρ" horiz-adv-x="584" d="M295,548C129,548 49,450 49,275l0,-497l158,17l0,251C242,-1 286,-17 337,-17C468,-17 547,108 547,267C547,451 458,548 295,548M290,99C256,99 229,114 207,152l0,108C207,380 230,433 296,433C349,433 384,396 384,265C384,149 347,99 290,99z" /><glyph unicode="˚" horiz-adv-x="338" d="M169,867C83,867 30,807 30,736C30,665 83,605 169,605C255,605 308,665 308,736C308,807 255,867 169,867M169,786C196,786 214,769 214,736C214,703 195,686 169,686C142,686 124,703 124,736C124,769 142,786 169,786z" /><glyph unicode="s" horiz-adv-x="480" d="M249,548C115,548 32,477 32,386C32,304 84,250 189,220C285,193 301,182 301,146C301,114 272,96 224,96C172,96 123,117 83,148l-77,-86C58,15 136,-17 228,-17C360,-17 464,48 464,158C464,253 405,297 300,327C205,355 191,367 191,395C191,419 212,435 255,435C301,435 345,420 386,394l58,89C395,523 326,548 249,548z" /><glyph unicode="ś" horiz-adv-x="480" d="M321,835l-218,-132l44,-81l236,95M249,548C115,548 32,477 32,386C32,304 84,250 189,220C285,193 301,182 301,146C301,114 272,96 224,96C172,96 123,117 83,148l-77,-86C58,15 136,-17 228,-17C360,-17 464,48 464,158C464,253 405,297 300,327C205,355 191,367 191,395C191,419 212,435 255,435C301,435 345,420 386,394l58,89C395,523 326,548 249,548z" /><glyph unicode="š" horiz-adv-x="480" d="M382,813l-133,-91l-133,91l-57,-65l142,-137l96,0l141,137M249,548C115,548 32,477 32,386C32,304 84,250 189,220C285,193 301,182 301,146C301,114 272,96 224,96C172,96 123,117 83,148l-77,-86C58,15 136,-17 228,-17C360,-17 464,48 464,158C464,253 405,297 300,327C205,355 191,367 191,395C191,419 212,435 255,435C301,435 345,420 386,394l58,89C395,523 326,548 249,548z" /><glyph unicode="ş" horiz-adv-x="480" d="M464,158C464,253 405,297 300,327C205,355 191,367 191,395C191,419 212,435 255,435C301,435 345,420 386,394l58,89C395,523 326,548 249,548C115,548 32,477 32,386C32,304 84,250 189,220C285,193 301,182 301,146C301,114 272,96 224,96C172,96 123,117 83,148l-77,-86C52,21 117,-9 194,-16l-11,-96C247,-112 275,-122 275,-146C275,-168 256,-176 228,-176C203,-176 184,-169 164,-159l-36,-73C153,-249 193,-262 240,-262C331,-262 389,-215 389,-147C389,-93 357,-56 285,-48l0,35C389,3 464,64 464,158z" /><glyph unicode="ŝ" horiz-adv-x="480" d="M115,620l134,92l133,-92l56,65l-141,137l-97,0l-141,-137M249,548C115,548 32,477 32,386C32,304 84,250 189,220C285,193 301,182 301,146C301,114 272,96 224,96C172,96 123,117 83,148l-77,-86C58,15 136,-17 228,-17C360,-17 464,48 464,158C464,253 405,297 300,327C205,355 191,367 191,395C191,419 212,435 255,435C301,435 345,420 386,394l58,89C395,523 326,548 249,548z" /><glyph unicode="§" horiz-adv-x="550" d="M419,182C463,210 497,251 497,307C497,390 439,428 344,458C243,490 228,502 228,535C228,563 251,580 301,580C346,580 390,568 433,544l53,89C434,667 366,689 293,689C161,689 78,622 78,529C78,483 94,449 133,421C87,393 53,353 53,298C53,214 110,177 204,148C310,116 323,102 323,70C323,42 294,26 244,26C197,26 155,39 112,64l-51,-93C109,-62 174,-83 252,-83C387,-83 474,-19 474,76C474,125 458,155 419,182M268,249C207,271 191,287 191,321C191,338 197,359 212,379l49,-17C340,336 359,319 359,285C359,267 350,244 333,224C314,232 292,240 268,249z" /><glyph unicode=";" horiz-adv-x="240" d="M120,509C69,509 29,468 29,419C29,370 69,329 120,329C170,329 210,370 210,419C210,468 170,509 120,509M120,164C68,164 29,125 29,74C29,43 44,16 69,-1l-43,-176l89,0l63,145C200,17 210,43 210,74C210,125 171,164 120,164z" /><glyph unicode="7" horiz-adv-x="468" d="M450,676l-437,0l0,-119l273,0l-227,-525l143,-48l248,585z" /><glyph unicode="⅞" horiz-adv-x="901" d="M578,759l-411,-799l92,-45l411,799M187,260l161,355l0,78l-297,0l0,-86l177,0l-146,-308M791,226C842,252 862,289 862,322C862,389 798,431 702,431C605,431 541,381 541,316C541,279 558,243 606,215C554,194 524,161 524,113C524,46 586,-12 699,-12C816,-12 879,48 879,114C879,160 854,197 791,226M702,355C732,355 748,339 748,315C748,295 742,276 715,257l-16,6C667,274 655,292 655,314C655,343 673,355 702,355M703,70C665,70 642,89 642,119C642,145 653,167 678,182l25,-9C745,158 762,145 762,116C762,91 743,70 703,70z" /><glyph unicode="σ" horiz-adv-x="603" d="M593,531C507,536 409,540 315,540C122,540 32,431 32,266C32,87 131,-17 292,-17C454,-17 552,95 552,259C552,337 528,389 488,423l105,-7M292,99C228,99 196,148 196,265C196,396 233,427 347,427l1,0C371,400 388,352 388,259C388,150 356,99 292,99z" /><glyph unicode="6" horiz-adv-x="564" d="M345,455C294,455 244,436 202,393C211,511 260,577 336,577C371,577 400,567 428,551l58,94C447,671 396,690 332,690C149,690 38,538 38,309C38,115 115,-17 294,-17C445,-17 539,93 539,231C539,374 456,455 345,455M296,96C228,96 204,152 202,293C231,327 265,346 301,346C353,346 381,316 381,229C381,149 353,96 296,96z" /><glyph unicode="/" horiz-adv-x="520" d="M309,816l-236,-896l139,-32l235,897z" /><glyph unicode=" " horiz-adv-x="237" /><glyph unicode="£" horiz-adv-x="539" d="M266,241l0,70l185,0l0,82l-185,0l0,88C266,538 289,572 340,572C377,572 404,558 431,519l97,71C479,657 415,690 324,690C183,690 111,601 111,482l0,-89l-68,0l0,-82l68,0l0,-78C111,169 104,137 28,114l0,-114l463,0l18,120l-307,0C255,149 266,185 266,241z" /><glyph unicode="∑" horiz-adv-x="520" d="M489,676l-458,0l0,-114l194,-225l-194,-223l0,-114l458,0l0,119l-285,0l166,190l0,60l-166,188l285,0z" /><glyph unicode="t" horiz-adv-x="386" d="M342,125C321,113 303,108 285,108C252,108 235,126 235,177l0,244l105,0l17,110l-122,0l0,133l-158,-18l0,-115l-75,0l0,-110l75,0l0,-246C77,50 134,-16 251,-17C299,-17 355,-3 395,25z" /><glyph unicode="τ" horiz-adv-x="481" d="M480,413l0,118l-347,0C62,531 29,524 -8,508l28,-106C50,411 63,413 114,413l48,0l0,-255C162,49 215,1 317,-17l46,114C331,112 320,131 320,179l0,234z" /><glyph unicode="ŧ" horiz-adv-x="386" d="M342,125C321,113 303,108 285,108C252,108 235,126 235,177l0,80l103,0l0,104l-103,0l0,60l105,0l17,110l-122,0l0,133l-158,-18l0,-115l-75,0l0,-110l75,0l0,-60l-66,0l0,-104l66,0l0,-82C77,50 134,-16 251,-17C299,-17 355,-3 395,25z" /><glyph unicode="ť" horiz-adv-x="386" d="M400,779l-120,17l-23,-219l88,-13M285,108C252,108 235,126 235,177l0,244l105,0l17,110l-122,0l0,133l-158,-18l0,-115l-75,0l0,-110l75,0l0,-246C77,50 134,-16 251,-17C299,-17 355,-3 395,25l-53,100C321,113 303,108 285,108z" /><glyph unicode="θ" horiz-adv-x="563" d="M282,759C121,759 32,624 32,372C32,114 120,-17 281,-17C442,-17 531,116 531,373C531,626 443,759 282,759M282,644C346,644 377,598 381,419l-200,0C185,598 217,644 282,644M281,97C220,97 187,144 181,327l200,0C376,145 344,97 281,97z" /><glyph unicode="þ" horiz-adv-x="591" d="M358,548C313,548 261,530 219,481l0,278l-158,-17l0,-964l158,18l0,242C252,1 296,-17 348,-17C479,-17 559,103 559,267C559,439 498,548 358,548M299,99C266,99 241,114 219,146l0,224C242,409 273,432 308,432C363,432 395,397 395,265C395,146 358,99 299,99z" /><glyph unicode="3" horiz-adv-x="520" d="M239,690C149,690 74,659 11,599l78,-85C129,553 171,573 221,573C276,573 311,544 311,495C311,439 274,407 214,407l-39,0l-17,-109l56,0C285,298 324,272 324,201C324,139 281,103 219,103C166,103 126,123 81,168l-85,-83C49,21 126,-17 228,-17C395,-17 486,78 486,191C486,298 416,348 332,357C415,381 464,436 464,518C464,613 385,690 239,690z" /><glyph unicode="⅜" horiz-adv-x="969" d="M644,759l-411,-799l92,-45l411,799M367,392C367,458 321,490 259,494C322,510 352,546 352,593C352,655 299,703 199,703C136,703 83,682 41,643l59,-62C125,604 153,616 184,616C216,616 237,602 237,575C237,547 217,532 180,532l-26,0l-13,-80l37,0C223,452 245,437 245,400C245,366 219,350 183,350C150,350 124,361 98,389l-65,-62C68,286 119,260 192,260C307,260 367,321 367,392M859,226C909,252 930,289 930,322C930,389 866,431 769,431C673,431 609,381 609,316C609,279 625,243 673,215C622,194 592,161 592,113C592,46 654,-12 767,-12C884,-12 946,48 946,114C946,160 921,197 859,226M770,355C800,355 815,339 815,315C815,295 810,276 783,257l-16,6C735,274 723,292 723,314C723,343 741,355 770,355M770,70C733,70 710,89 710,119C710,145 721,167 745,182l26,-9C813,158 829,145 829,116C829,91 811,70 770,70z" /><glyph unicode="¾" horiz-adv-x="969" d="M644,759l-411,-799l92,-45l411,799M367,392C367,458 321,490 259,494C322,510 352,546 352,593C352,655 299,703 199,703C136,703 83,682 41,643l59,-62C125,604 153,616 184,616C216,616 237,602 237,575C237,547 217,532 180,532l-26,0l-13,-80l37,0C223,452 245,437 245,400C245,366 219,350 183,350C150,350 124,361 98,389l-65,-62C68,286 119,260 192,260C307,260 367,321 367,392M943,170l-46,0l0,95l-90,0l-20,-95l-73,0l100,225l-99,36l-121,-269l0,-78l191,0l0,-84l112,0l0,84l46,0z" /><glyph unicode="˜" horiz-adv-x="436" d="M276,635C335,635 380,685 406,752l-79,39C311,762 297,747 275,747C259,747 247,755 229,768C208,782 190,792 159,792C99,792 55,738 30,674l79,-38C125,664 138,680 162,680C179,680 191,671 209,658C229,643 248,635 276,635z" /><glyph unicode="̃" horiz-adv-x="0" d="M-160,635C-101,635 -56,685 -30,752l-79,39C-125,762 -139,747 -161,747C-177,747 -189,755 -207,768C-228,782 -246,792 -277,792C-337,792 -381,738 -406,674l79,-38C-311,664 -298,680 -274,680C-257,680 -245,671 -227,658C-207,643 -188,635 -160,635z" /><glyph unicode="΄" horiz-adv-x="215" d="M31,836l7,-240l101,0l46,228z" /><glyph unicode="™" horiz-adv-x="906" d="M384,693l-355,0l0,-91l114,0l0,-306l116,0l0,306l110,0M840,693l-155,0l-58,-250l-66,250l-149,0l-14,-397l107,0l4,162C510,511 508,551 503,602l2,0l78,-265l90,0l70,266l3,0C739,549 737,518 739,458l4,-162l111,0z" /><glyph unicode="▼" horiz-adv-x="878" d="M439,8l379,664l-758,0z" /><glyph unicode="◄" horiz-adv-x="600" d="M59,341l442,-232l0,463z" /><glyph unicode="►" horiz-adv-x="600" d="M99,572l0,-463l442,232z" /><glyph unicode="▲" horiz-adv-x="878" d="M60,30l758,0l-379,665z" /><glyph unicode="2" horiz-adv-x="517" d="M238,690C137,690 60,644 6,573l93,-74C139,547 173,569 222,569C275,569 309,536 309,481C309,397 256,336 29,112l0,-112l440,0l16,121l-277,0C419,313 471,392 471,497C471,602 389,690 238,690z" /><glyph unicode="u" horiz-adv-x="568" d="M507,531l-158,0l0,-369C326,122 296,100 263,100C230,100 212,116 212,170l0,361l-158,0l0,-381C54,47 103,-17 202,-17C273,-17 325,11 363,67l7,-67l137,0z" /><glyph unicode="ú" horiz-adv-x="568" d="M353,835l-218,-132l44,-81l236,95M507,531l-158,0l0,-369C326,122 296,100 263,100C230,100 212,116 212,170l0,361l-158,0l0,-381C54,47 103,-17 202,-17C273,-17 325,11 363,67l7,-67l137,0z" /><glyph unicode="ŭ" horiz-adv-x="568" d="M281,632C386,632 446,709 454,805l-87,15C354,772 327,742 281,742C235,742 208,772 196,820l-87,-15C117,709 176,632 281,632M507,531l-158,0l0,-369C326,122 296,100 263,100C230,100 212,116 212,170l0,361l-158,0l0,-381C54,47 103,-17 202,-17C273,-17 325,11 363,67l7,-67l137,0z" /><glyph unicode="û" horiz-adv-x="568" d="M148,620l134,92l133,-92l56,65l-141,137l-97,0l-141,-137M507,531l-158,0l0,-369C326,122 296,100 263,100C230,100 212,116 212,170l0,361l-158,0l0,-381C54,47 103,-17 202,-17C273,-17 325,11 363,67l7,-67l137,0z" /><glyph unicode="ü" horiz-adv-x="568" d="M165,799C120,799 84,764 84,720C84,676 120,641 165,641C211,641 246,676 246,720C246,764 211,799 165,799M396,799C352,799 316,764 316,720C316,676 352,641 396,641C443,641 477,676 477,720C477,764 443,799 396,799M507,531l-158,0l0,-369C326,122 296,100 263,100C230,100 212,116 212,170l0,361l-158,0l0,-381C54,47 103,-17 202,-17C273,-17 325,11 363,67l7,-67l137,0z" /><glyph unicode="ù" horiz-adv-x="568" d="M213,835l-62,-118l236,-95l44,81M507,531l-158,0l0,-369C326,122 296,100 263,100C230,100 212,116 212,170l0,361l-158,0l0,-381C54,47 103,-17 202,-17C273,-17 325,11 363,67l7,-67l137,0z" /><glyph unicode="ư" horiz-adv-x="643" d="M640,609l-102,-15C545,574 551,556 551,527C551,494 539,477 507,472l0,59l-158,0l0,-369C326,122 296,100 263,100C230,100 212,116 212,170l0,361l-158,0l0,-381C54,47 103,-17 202,-17C273,-17 325,11 363,67l7,-67l137,0l0,418l3,-23C602,396 659,437 659,521C659,563 650,590 640,609z" /><glyph unicode="ű" horiz-adv-x="568" d="M261,827l-96,-188l70,-38l126,169M432,818l-105,-182l67,-42l135,162M507,531l-158,0l0,-369C326,122 296,100 263,100C230,100 212,116 212,170l0,361l-158,0l0,-381C54,47 103,-17 202,-17C273,-17 325,11 363,67l7,-67l137,0z" /><glyph unicode="ū" horiz-adv-x="568" d="M433,655l0,110l-305,0l0,-110M507,531l-158,0l0,-369C326,122 296,100 263,100C230,100 212,116 212,170l0,361l-158,0l0,-381C54,47 103,-17 202,-17C273,-17 325,11 363,67l7,-67l137,0z" /><glyph unicode="_" horiz-adv-x="520" d="M10,-171l500,0l0,124l-500,0z" /><glyph unicode=" " horiz-adv-x="237" /><glyph unicode="­" horiz-adv-x="407" d="M44,252l319,0l0,122l-319,0z" /><glyph unicode="²" horiz-adv-x="400" d="M194,752C125,752 71,720 36,675l68,-53C129,651 151,664 182,664C212,664 232,646 232,616C232,572 198,535 53,403l0,-82l298,0l12,89l-177,0C322,520 353,566 353,626C353,692 300,752 194,752z" /><glyph unicode="³" horiz-adv-x="400" d="M199,752C136,752 83,731 41,692l59,-62C125,653 153,665 184,665C216,665 237,651 237,624C237,596 217,581 180,581l-26,0l-13,-80l37,0C223,501 245,486 245,449C245,415 219,399 183,399C150,399 124,410 98,438l-65,-62C68,335 119,309 192,309C307,309 367,370 367,441C367,507 321,539 259,543C322,559 352,595 352,642C352,704 299,752 199,752z" /><glyph unicode="µ" horiz-adv-x="581" d="M536,0C523,42 512,102 512,182l0,349l-158,0l0,-361C329,124 298,106 269,106C240,106 219,121 219,167l0,364l-158,0l0,-751l149,15l0,92C210,-43 194,-8 171,34C195,1 223,-8 260,-8C304,-8 341,22 368,69C374,33 378,11 391,-17z" /><glyph unicode="¹" horiz-adv-x="400" d="M300,742l-107,0l-154,-89l53,-78l91,57l0,-311l117,0z" /><glyph unicode="Ģ" horiz-adv-x="645" d="M365,710C179,710 33,582 33,347C33,110 139,-17 351,-17C438,-17 528,10 600,56l0,343l-265,0l16,-116l90,0l0,-157C412,110 381,103 347,103C251,103 203,165 203,347C203,519 275,591 372,591C428,591 466,574 513,538l83,87C539,675 466,710 365,710M348,-68C302,-68 269,-103 269,-145C269,-174 283,-195 302,-210l-27,-115l79,0l46,96C419,-191 427,-171 427,-145C427,-101 394,-68 348,-68z" /><glyph unicode="ģ" horiz-adv-x="551" d="M272,577C317,577 351,612 351,655C351,683 337,704 318,719l27,115l-79,0l-46,-96C201,700 193,680 193,655C193,610 226,577 272,577M514,617C450,579 382,545 264,548C125,548 31,474 31,354C31,285 58,238 126,202C88,178 63,139 63,100C63,43 110,-5 226,-5l77,0C356,-5 379,-26 379,-57C379,-91 357,-117 264,-117C168,-117 148,-97 148,-51l-142,0C6,-156 59,-222 260,-222C442,-222 538,-155 538,-46C538,43 459,108 335,108l-80,0C204,108 197,124 197,140C197,152 203,164 214,170C233,166 253,164 275,164C413,164 498,239 498,342C498,411 465,450 398,479C465,479 514,485 551,500M268,444C321,444 348,417 348,358C348,297 320,266 268,266C220,266 188,298 188,356C188,411 219,444 268,444z" /><glyph unicode="Ķ" horiz-adv-x="633" d="M229,693l-164,0l0,-693l164,0M627,693l-173,0l-220,-323l221,-370l190,0l-239,382M325,-68C279,-68 246,-103 246,-145C246,-174 260,-195 279,-210l-27,-115l79,0l46,96C396,-191 404,-171 404,-145C404,-101 371,-68 325,-68z" /><glyph unicode="ķ" horiz-adv-x="551" d="M219,759l-158,-17l0,-742l158,0M547,531l-161,0l-162,-241l158,-290l178,0l-174,298M275,-68C229,-68 196,-103 196,-145C196,-174 210,-195 229,-210l-27,-115l79,0l46,96C346,-191 354,-171 354,-145C354,-101 321,-68 275,-68z" /><glyph unicode="Ļ" horiz-adv-x="513" d="M229,693l-164,0l0,-693l417,0l17,130l-270,0M274,-68C228,-68 195,-103 195,-145C195,-174 209,-195 228,-210l-27,-115l79,0l46,96C345,-191 353,-171 353,-145C353,-101 320,-68 274,-68z" /><glyph unicode="ļ" horiz-adv-x="300" d="M200,-17C239,-17 273,-9 296,1l-30,112C259,110 250,108 240,108C221,108 212,119 212,141l0,618l-158,-17l0,-607C54,38 108,-17 200,-17M181,-68C135,-68 102,-103 102,-145C102,-174 116,-195 135,-210l-27,-115l79,0l46,96C252,-191 260,-171 260,-145C260,-101 227,-68 181,-68z" /><glyph unicode="Ņ" horiz-adv-x="663" d="M599,693l-147,0l0,-280C452,302 465,211 474,155l-205,538l-204,0l0,-693l146,0l0,254C211,382 198,474 190,537l200,-537l209,0M333,-68C287,-68 254,-103 254,-145C254,-174 268,-195 287,-210l-27,-115l79,0l46,96C404,-191 412,-171 412,-145C412,-101 379,-68 333,-68z" /><glyph unicode="ņ" horiz-adv-x="573" d="M372,548C305,548 254,520 210,467l-12,64l-137,0l0,-531l158,0l0,363C246,407 276,432 311,432C342,432 361,417 361,361l0,-361l158,0l0,388C519,489 464,548 372,548M289,-68C243,-68 210,-103 210,-145C210,-174 224,-195 243,-210l-27,-115l79,0l46,96C360,-191 368,-171 368,-145C368,-101 335,-68 289,-68z" /><glyph unicode="Ŗ" horiz-adv-x="617" d="M444,295C534,336 577,391 577,482C577,626 480,693 292,693l-227,0l0,-693l164,0l0,265l64,0l142,-265l185,0M229,578l59,0C369,578 408,549 408,482C408,409 370,378 298,378l-69,0M312,-68C266,-68 233,-103 233,-145C233,-174 247,-195 266,-210l-27,-115l79,0l46,96C383,-191 391,-171 391,-145C391,-101 358,-68 312,-68z" /><glyph unicode="ŗ" horiz-adv-x="400" d="M349,546C288,546 236,502 212,428l-14,103l-137,0l0,-531l158,0l0,267C237,346 264,393 329,393C346,393 360,390 377,386l25,153C384,544 369,546 349,546M141,-68C95,-68 62,-103 62,-145C62,-174 76,-195 95,-210l-27,-115l79,0l46,96C212,-191 220,-171 220,-145C220,-101 187,-68 141,-68z" /><glyph unicode="Ţ" horiz-adv-x="540" d="M352,-48l0,615l171,0l16,126l-530,0l0,-126l179,0l0,-567l76,0l-13,-112C315,-112 343,-122 343,-145C343,-168 323,-176 293,-176C270,-176 252,-169 232,-159l-36,-73C220,-248 261,-262 307,-262C398,-262 457,-215 457,-147C457,-93 423,-56 352,-48z" /><glyph unicode="ţ" horiz-adv-x="386" d="M277,-48l0,32C318,-12 362,2 395,25l-53,100C321,113 303,108 285,108C252,108 235,126 235,177l0,244l105,0l17,110l-122,0l0,133l-158,-18l0,-115l-75,0l0,-110l75,0l0,-246C77,75 113,13 187,-8l-12,-104C239,-112 267,-122 267,-146C267,-168 248,-176 220,-176C195,-176 176,-169 156,-159l-36,-73C145,-249 185,-262 232,-262C323,-262 381,-215 381,-147C381,-93 349,-56 277,-48z" /><glyph unicode="ƀ" horiz-adv-x="599" d="M371,548C311,548 258,520 227,476l0,120l133,0l0,92l-133,0l0,71l-158,-17l0,-54l-61,0l0,-92l61,0l0,-596l141,0l7,50C250,9 297,-17 356,-17C488,-17 567,101 567,265C567,443 497,548 371,548M310,98C276,98 248,117 227,150l0,220C250,409 281,432 317,432C368,432 404,400 404,265C404,141 366,98 310,98z" /><glyph unicode="Ɓ" horiz-adv-x="758" d="M575,367C639,382 703,428 703,516C703,646 588,693 403,693l-216,0C75,693 4,636 4,544C4,497 25,458 48,424l101,45C139,492 132,512 132,534C132,561 148,576 178,576l28,0l0,-576l224,0C604,0 732,44 732,202C732,314 653,352 575,367M418,577C498,577 536,558 536,500C536,442 499,416 431,416l-61,0l0,161M431,119l-61,0l0,188l73,0C514,307 562,281 562,211C562,135 508,119 431,119z" /><glyph unicode="Ƃ" horiz-adv-x="596" d="M303,446l-74,0l0,123l251,0l17,124l-432,0l0,-693l241,0C464,0 578,73 578,229C578,374 476,446 303,446M292,119l-63,0l0,213l60,0C369,332 407,296 407,227C407,152 365,119 292,119z" /><glyph unicode="ƃ" horiz-adv-x="591" d="M359,536C304,536 251,508 219,465l0,164l201,0l17,113l-376,0l0,-742l140,0l8,51C241,9 289,-17 348,-17C480,-17 559,101 559,259C559,431 490,536 359,536M303,98C269,98 239,117 219,149l0,209C242,397 272,420 309,420C359,420 395,387 395,259C395,141 357,98 303,98z" /><glyph unicode="Ƅ" horiz-adv-x="615" d="M324,457l-74,0l0,236l-138,0C86,636 51,583 11,542l75,-50l0,-492l242,0C486,0 600,73 600,235C600,385 497,457 324,457M314,119l-64,0l0,224l60,0C391,343 428,307 428,233C428,152 386,119 314,119z" /><glyph unicode="ƅ" horiz-adv-x="541" d="M276,366l-38,0l0,165l-132,0C77,475 45,431 5,390l75,-51l0,-339l219,0C429,0 524,60 524,182C524,301 452,366 276,366M282,104l-44,0l0,161l36,0C341,265 363,237 363,185C363,130 334,104 282,104z" /><glyph unicode="Ɔ" horiz-adv-x="575" d="M242,710C145,710 76,682 16,634l79,-95C136,570 178,589 232,589C315,589 370,524 370,348C370,175 309,110 220,110C161,110 122,135 81,165l-73,-93C56,26 129,-17 228,-17C415,-17 542,111 542,348C542,580 421,710 242,710z" /><glyph unicode="Ƈ" horiz-adv-x="575" d="M590,851C480,851 425,792 420,694C395,704 365,710 329,710C171,710 33,580 33,348C33,111 160,-17 350,-17C446,-17 522,26 567,72l-74,96C453,137 413,110 358,110C266,110 205,181 205,348C205,518 267,589 355,589C409,589 449,574 489,550l70,84l0,39C559,716 577,735 611,735C637,735 656,728 679,716l46,98C693,834 650,851 590,851z" /><glyph unicode="ƈ" horiz-adv-x="479" d="M504,759C391,759 334,696 334,588l0,-49C316,545 296,548 273,548C134,548 32,430 32,261C32,93 132,-17 295,-17C368,-17 425,7 474,46l-69,98C367,120 341,108 303,108C240,108 198,144 198,262C198,381 237,427 307,427C352,427 384,417 415,401l59,82l0,98C474,624 491,642 525,642C551,642 570,635 593,623l46,98C608,741 564,759 504,759z" /><glyph unicode="Ɖ" horiz-adv-x="665" d="M272,693l-194,0l0,-291l-64,0l0,-98l64,0l0,-304l209,0C464,0 632,71 632,350C632,636 457,693 272,693M297,119l-55,0l0,185l135,0l0,98l-135,0l0,172l53,0C391,574 462,536 462,350C462,166 396,119 297,119z" /><glyph unicode="Ɗ" horiz-adv-x="793" d="M399,693l-212,0C75,693 4,636 4,544C4,497 25,458 48,424l101,45C139,492 132,512 132,534C132,561 148,576 178,576l28,0l0,-576l209,0C592,0 760,71 760,350C760,636 585,693 399,693M425,119l-55,0l0,455l53,0C519,574 590,536 590,350C590,166 523,119 425,119z" /><glyph unicode="Ƌ" horiz-adv-x="596" d="M531,693l-426,0l0,-124l262,0l0,-123l-74,0C120,446 18,366 18,223C18,67 129,0 284,0l247,0M303,119C231,119 189,149 189,223C189,295 227,332 307,332l60,0l0,-213z" /><glyph unicode="ƌ" horiz-adv-x="594" d="M533,742l-367,0l0,-113l209,0l0,-144C344,516 301,536 252,536C115,536 32,418 32,260C32,95 99,-17 234,-17C306,-17 354,18 385,62l8,-62l140,0M284,99C232,99 196,134 196,260C196,373 236,421 293,421C328,421 351,404 375,376l0,-217C350,119 321,99 284,99z" /><glyph unicode="ƍ" horiz-adv-x="577" d="M392,74C490,120 545,192 545,290C545,452 447,548 289,548C131,548 32,442 32,283C32,145 98,75 239,17C327,-18 340,-33 340,-65C340,-92 319,-113 266,-113C224,-113 192,-101 158,-78l-72,-84C130,-196 193,-223 277,-223C426,-223 491,-151 491,-68C491,-14 474,29 392,74M196,283C196,386 228,432 289,432C353,432 383,385 383,284C383,209 365,157 311,112C216,159 196,191 196,283z" /><glyph unicode="Ǝ" horiz-adv-x="526" d="M41,693l0,-117l256,0l0,-166l-213,0l0,-115l213,0l0,-177l-261,0l0,-118l425,0l0,693z" /><glyph unicode="Ə" horiz-adv-x="640" d="M309,710C207,710 130,680 62,622l74,-89C178,564 225,590 294,590C383,590 435,535 440,405l-411,0C25,385 23,360 23,338C23,121 113,-17 312,-17C491,-17 606,107 606,352C606,590 496,710 309,710M311,103C233,103 182,154 181,292l260,0C435,153 389,103 311,103z" /><glyph unicode="Ɛ" horiz-adv-x="541" d="M291,710C143,710 47,633 47,528C47,449 98,389 202,368C95,356 26,299 26,195C26,66 140,-17 299,-17C405,-17 485,18 543,80l-87,86C413,125 371,104 315,104C242,104 198,140 198,205C198,268 238,306 322,306l53,0l20,118l-76,0C253,424 216,456 216,510C216,555 241,591 310,591C357,591 401,573 444,535l79,83C459,679 386,710 291,710z" /><glyph unicode="Ƒ" horiz-adv-x="487" d="M461,576l17,117l-413,0l0,-735C65,-83 44,-103 10,-103C-20,-103 -36,-94 -60,-82l-53,-97C-81,-203 -37,-222 28,-222C148,-222 229,-159 229,-31l0,306l202,0l0,117l-202,0l0,184z" /><glyph unicode="Ɠ" horiz-adv-x="612" d="M627,851C515,851 460,790 457,689C427,702 390,710 346,710C183,710 33,582 33,347C33,110 139,-17 348,-17C439,-17 529,10 600,56l0,343l-265,0l16,-116l90,0l0,-157C412,110 381,103 347,103C251,103 203,165 203,347C203,519 275,591 372,591C428,591 472,573 519,545l77,80l0,48C596,716 614,735 648,735C674,735 693,728 716,716l46,98C731,834 687,851 627,851z" /><glyph unicode="Ɣ" horiz-adv-x="570" d="M583,693l-168,0l-127,-494l-128,494l-173,0l217,-601C157,9 136,-42 136,-98C136,-172 182,-222 287,-222C395,-222 438,-171 438,-97C438,-35 416,19 372,92M316,-87C316,-107 306,-119 287,-119C269,-119 258,-108 258,-87C258,-62 270,-31 287,6C304,-32 316,-60 316,-87z" /><glyph unicode="ƕ" horiz-adv-x="869" d="M798,531l-156,0C658,438 669,343 669,261C669,138 622,99 579,99C542,99 519,122 519,183l0,205C519,489 463,548 372,548C309,548 262,523 219,474l0,284l-158,-16l0,-742l158,0l0,364C246,407 276,432 311,432C341,432 361,417 361,361l0,-181C361,42 456,-17 568,-17C695,-17 827,59 827,248C827,359 813,450 798,531z" /><glyph unicode="Ɩ" horiz-adv-x="391" d="M343,123C319,110 303,102 273,102C239,102 219,122 219,163l0,530l-164,0l0,-520C55,46 135,-17 255,-17C320,-17 365,2 396,25z" /><glyph unicode="Ɨ" horiz-adv-x="330" d="M324,420l-77,0l0,273l-164,0l0,-273l-77,0l0,-121l77,0l0,-299l164,0l0,299l77,0z" /><glyph unicode="Ƙ" horiz-adv-x="653" d="M455,0l190,0l-240,382l101,159C534,585 549,593 576,593C598,593 611,586 622,579l44,94C640,692 604,710 553,710C468,710 425,677 373,591l-139,-221M229,693l-164,0l0,-693l164,0z" /><glyph unicode="ƙ" horiz-adv-x="551" d="M283,642C306,642 336,637 366,624l43,101C370,745 319,759 264,759C128,759 61,680 61,578l0,-578l158,0l0,572C219,622 237,642 283,642M386,298l161,233l-161,0l-162,-241l158,-290l178,0z" /><glyph unicode="ƚ" horiz-adv-x="335" d="M295,113C288,110 280,108 269,108C250,108 242,119 242,141l0,175l82,0l0,111l-82,0l0,332l-158,-17l0,-315l-78,0l0,-111l78,0l0,-181C84,38 138,-17 230,-17C268,-17 302,-9 326,1z" /><glyph unicode="ƛ" horiz-adv-x="529" d="M390,457C370,541 346,600 315,644l64,52l-65,74l-72,-60C199,735 147,748 81,758l-19,-102C98,651 125,645 148,636l-73,-64l86,-52l57,48C228,547 236,521 244,489l-78,0l-158,-470l156,-36l97,398C299,180 331,86 395,-17l152,50C476,129 443,229 390,457z" /><glyph unicode="Ɯ" horiz-adv-x="915" d="M686,693l0,-520C655,126 630,105 592,105C555,105 535,135 535,185l0,508l-165,0l0,-516l0,-5C338,131 312,105 277,105C239,105 219,135 219,185l0,508l-164,0l0,-516C55,63 116,-17 222,-17C289,-17 337,11 391,75C417,18 468,-17 538,-17C601,-17 648,8 695,64l12,-64l143,0l0,693z" /><glyph unicode="Ɲ" horiz-adv-x="663" d="M452,693l0,-280C452,302 465,211 474,155l-205,538l-204,0l0,-739C65,-87 43,-107 8,-107C-22,-107 -39,-98 -62,-85l-54,-94C-84,-203 -39,-222 25,-222C136,-222 211,-159 211,-32l0,286C211,382 198,474 190,537l200,-537l209,0l0,693z" /><glyph unicode="ƞ" horiz-adv-x="575" d="M519,1l0,387C519,489 464,548 372,548C305,548 254,520 210,467l-12,64l-137,0l0,-531l158,0l0,363C246,407 276,432 311,432C342,432 361,417 361,361l0,-361l1,0l0,-205l158,-17l0,223z" /><glyph unicode="Ɵ" horiz-adv-x="691" d="M345,710C150,710 33,573 33,347C33,116 150,-17 345,-17C541,-17 658,120 658,347C658,578 541,710 345,710M345,590C429,590 480,535 489,397l-287,0C211,535 262,590 345,590M345,103C263,103 209,160 201,305l289,0C482,160 431,103 345,103z" /><glyph unicode="Ƣ" horiz-adv-x="960" d="M692,711C626,711 574,691 524,657C475,692 414,710 345,710C150,710 33,573 33,347C33,116 150,-17 345,-17C541,-17 658,120 658,347C658,442 637,520 599,579C622,589 643,596 672,596C710,596 732,575 732,525l0,-735l164,0l0,729C896,646 817,711 692,711M345,103C255,103 205,171 205,347C205,522 253,590 345,590C438,590 486,522 486,347C486,171 439,103 345,103z" /><glyph unicode="ƣ" horiz-adv-x="828" d="M575,548C518,548 476,536 432,511C393,535 345,548 292,548C130,548 32,436 32,266C32,87 131,-17 292,-17C454,-17 552,95 552,265C552,329 538,384 513,428C527,431 539,433 552,433C589,433 609,415 609,369l0,-574l158,-17l0,579C767,483 693,548 575,548M292,99C228,99 196,148 196,266C196,381 228,432 292,432C356,432 388,383 388,265C388,150 356,99 292,99z" /><glyph unicode="Ƥ" horiz-adv-x="741" d="M431,693l-244,0C75,693 4,636 4,544C4,497 25,458 48,424l101,45C139,492 132,512 132,534C132,561 148,576 178,576l28,0l0,-576l164,0l0,231l75,0C605,231 720,306 720,467C720,619 610,693 431,693M431,349l-61,0l0,227l58,0C509,576 551,541 551,467C551,380 506,349 431,349z" /><glyph unicode="ƥ" horiz-adv-x="591" d="M358,548C313,548 261,530 219,480l0,92C219,622 237,642 283,642C306,642 336,637 366,624l43,101C370,745 319,759 264,759C128,759 61,680 61,578l0,-800l158,17l0,243C252,1 296,-17 348,-17C479,-17 559,103 559,267C559,439 498,548 358,548M299,99C266,99 241,114 219,146l0,224C242,409 273,432 308,432C363,432 395,397 395,265C395,146 358,99 299,99z" /><glyph unicode="Ʀ" horiz-adv-x="617" d="M435,-115l185,0l-176,295C534,222 577,276 577,368C577,512 480,579 292,579l-63,0l0,114l-164,0l0,-693l164,0l0,150l64,0M229,463l59,0C369,463 408,434 408,368C408,295 370,264 298,264l-69,0z" /><glyph unicode="Ƨ" horiz-adv-x="563" d="M292,710C191,710 112,679 46,621l77,-88C171,571 219,590 280,590C333,590 367,568 367,523C367,476 338,453 230,418C100,377 24,321 24,199C24,73 126,-17 287,-17C406,-17 494,27 553,82l-82,91C421,132 363,106 298,106C235,106 195,135 195,190C195,239 221,271 322,302C472,349 537,408 537,514C537,633 438,710 292,710z" /><glyph unicode="ƨ" horiz-adv-x="471" d="M243,548C160,548 92,523 36,483l58,-88C135,420 179,435 227,435C270,435 289,418 289,394C289,364 275,348 183,322C78,292 16,251 16,155C16,48 115,-17 243,-17C335,-17 412,15 464,62l-76,85C348,117 299,96 249,96C208,96 179,114 179,148C179,182 195,199 288,226C393,256 448,298 448,386C448,477 372,548 243,548z" /><glyph unicode="Ʃ" horiz-adv-x="503" d="M482,693l-461,0l0,-119l192,-234l-192,-221l0,-119l461,0l0,122l-281,0l169,187l0,65l-168,200l280,0z" /><glyph unicode="ƪ" horiz-adv-x="403" d="M467,-87C444,-99 427,-107 397,-107C362,-107 341,-87 341,-46l0,619C341,686 269,759 147,759C33,759 -37,686 -37,587C-37,485 29,418 121,418C145,418 166,423 183,429l0,-460C183,-158 262,-222 379,-222C445,-222 489,-203 521,-179M150,527C117,527 100,546 100,590C100,629 114,649 142,649C169,649 183,631 183,596l0,-64C172,529 161,527 150,527z" /><glyph unicode="ƫ" horiz-adv-x="386" d="M350,110C325,103 309,100 290,100C252,100 235,119 235,166l0,255l105,0l17,110l-122,0l0,133l-158,-18l0,-115l-75,0l0,-110l75,0l0,-246C77,50 135,-16 247,-17C250,-17 254,-17 257,-16l0,-29C257,-88 233,-106 192,-106C156,-106 135,-98 110,-85l-53,-94C89,-202 138,-221 202,-221C322,-221 395,-158 395,-31l0,56z" /><glyph unicode="Ƭ" horiz-adv-x="595" d="M594,693l-400,0C76,693 4,637 4,543C4,498 22,456 41,424l108,46C140,489 133,505 133,527C133,552 149,567 179,567l64,0l0,-567l164,0l0,567l170,0z" /><glyph unicode="ƭ" horiz-adv-x="386" d="M342,126C321,113 303,108 285,108C252,108 235,126 235,177l0,244l105,0l17,110l-122,0l0,56C235,630 252,649 283,649C306,649 325,641 348,629l46,92C363,741 320,759 262,759C141,759 77,684 77,576l0,-45l-75,0l0,-110l75,0l0,-246C77,50 134,-16 251,-17C299,-17 355,-3 395,25z" /><glyph unicode="Ʈ" horiz-adv-x="542" d="M406,-103C372,-103 352,-83 352,-42l0,609l171,0l16,126l-530,0l0,-126l179,0l0,-598C188,-159 268,-222 389,-222C454,-222 498,-203 530,-179l-54,97C453,-94 436,-103 406,-103z" /><glyph unicode="Ʊ" horiz-adv-x="691" d="M345,-17C540,-17 658,122 658,302C658,442 604,524 526,576l111,0l0,117l-236,0l0,-111C454,519 486,450 486,302C486,171 437,103 345,103C252,103 205,171 205,302C205,450 234,519 290,582l0,111l-235,0l0,-117l110,0C88,521 33,440 33,302C33,120 148,-17 345,-17z" /><glyph unicode="Ʋ" horiz-adv-x="651" d="M444,710C404,710 375,704 348,693l26,-107C382,589 391,591 401,591C423,591 432,580 432,552l0,-262C432,159 383,105 309,105C250,105 219,146 219,215l0,478l-164,0l0,-479C55,81 147,-17 305,-17C480,-17 596,98 596,292l0,252C596,659 540,710 444,710z" /><glyph unicode="Ƴ" horiz-adv-x="633" d="M215,0l164,0l0,260l128,280C526,582 542,595 573,595C595,595 613,587 627,579l45,94C640,695 603,710 552,710C458,710 408,670 370,566l-70,-178l-128,305l-179,0l222,-434z" /><glyph unicode="ƴ" horiz-adv-x="525" d="M56,-222C223,-213 327,-140 366,26l98,402C472,461 486,469 507,469C517,469 526,467 534,464l27,105C537,578 511,584 478,584C387,584 349,537 329,437l-72,-336l-95,430l-168,0l162,-531l54,0C181,-68 143,-98 39,-111z" /><glyph unicode="Ƶ" horiz-adv-x="544" d="M197,131l116,164l154,0l0,105l-79,0l124,175l0,118l-463,0l0,-127l290,0l-118,-166l-156,0l0,-105l81,0l-128,-179l0,-116l483,0l16,131z" /><glyph unicode="ƶ" horiz-adv-x="454" d="M188,114l88,111l135,0l0,95l-59,0l84,106l0,105l-402,0l0,-113l228,0l-78,-98l-143,0l0,-95l67,0l-95,-119l0,-106l414,0l14,114z" /><glyph unicode="Ʒ" horiz-adv-x="547" d="M307,403l178,175l0,115l-442,0l0,-119l261,0l-177,-174l0,-92l99,0C303,308 351,281 351,212C351,143 307,105 235,105C174,105 134,124 88,167l-84,-82C58,21 132,-17 243,-17C420,-17 520,81 520,205C520,324 445,397 307,403z" /><glyph unicode="Ƹ" horiz-adv-x="547" d="M458,167C413,124 370,105 305,105C237,105 196,143 196,205C196,272 239,308 320,308l100,0l0,90l-175,176l258,0l0,119l-441,0l0,-115l178,-175C108,397 26,318 26,203C26,76 128,-17 296,-17C413,-17 487,21 543,85z" /><glyph unicode="ƹ" horiz-adv-x="505" d="M436,-40C387,-83 346,-101 289,-101C221,-101 176,-63 176,12C176,86 218,120 301,120l93,0l0,89l-173,204l256,0l0,118l-432,0l0,-108l184,-211C93,204 13,131 13,3C13,-124 113,-222 279,-222C389,-222 463,-183 517,-119z" /><glyph unicode="ƺ" horiz-adv-x="509" d="M187,-222l38,87C192,-120 174,-106 174,-88C174,-66 193,-54 288,-38C396,-20 487,23 487,134C487,224 420,280 307,280l-26,0l172,149l0,102l-431,0l0,-112l247,0l-157,-145l0,-86l132,0C298,188 324,174 324,139C324,97 287,80 199,65C83,44 27,4 27,-70C27,-142 90,-192 187,-222z" /><glyph unicode="ƻ" horiz-adv-x="517" d="M208,121C257,166 298,205 331,239l145,0l0,105l-56,0C458,400 471,445 471,497C471,602 389,690 238,690C137,690 60,644 6,573l93,-74C139,547 173,569 222,569C275,569 309,536 309,481C309,438 295,401 250,344l-189,0l0,-105l95,0C121,203 79,162 29,112l0,-112l440,0l16,121z" /><glyph unicode="Ƽ" horiz-adv-x="543" d="M478,693l-420,0l0,-371l108,0C200,339 224,346 253,346C308,346 348,316 348,228C348,144 306,102 235,102C181,102 136,126 101,167l-88,-82C65,26 140,-17 241,-17C406,-17 510,80 510,228C510,374 426,454 316,454C282,454 247,448 210,430l0,150l251,0z" /><glyph unicode="ƽ" horiz-adv-x="479" d="M419,531l-359,0l0,-303l103,0C186,237 204,242 231,242C266,242 294,223 294,175C294,127 263,101 215,101C167,101 140,117 97,149l-79,-85C68,15 126,-17 220,-17C358,-17 452,59 452,174C452,285 374,348 282,348C245,348 220,342 200,333l0,83l197,0z" /><glyph unicode="ƾ" horiz-adv-x="512" d="M331,433l-32,7l0,89l97,0l0,93l-97,0l0,136l-158,-16l0,-120l-70,0l0,-93l70,0l0,-140l56,-12C280,356 318,309 318,223C318,143 278,100 211,100C163,100 125,118 83,155l-78,-80C68,15 140,-17 232,-17C381,-17 480,78 480,222C480,345 418,407 331,433z" /><glyph unicode="ƿ" horiz-adv-x="591" d="M377,548C304,548 250,517 209,467l-9,64l-139,0l0,-753l158,17l0,191l65,32C441,95 559,172 559,352C559,474 481,548 377,548M257,124l-38,-24l0,283C248,414 282,434 325,434C370,434 395,406 395,350C395,249 344,180 257,124z" /><glyph unicode="ǀ" horiz-adv-x="266" d="M202,756l-137,-14l0,-742l137,0z" /><glyph unicode="ǁ" horiz-adv-x="469" d="M202,756l-137,-14l0,-742l137,0M405,756l-137,-14l0,-742l137,0z" /><glyph unicode="ǂ" horiz-adv-x="330" d="M324,396l0,91l-90,0l0,269l-137,-14l0,-255l-91,0l0,-91l91,0l0,-58l-91,0l0,-91l91,0l0,-247l137,0l0,247l90,0l0,91l-90,0l0,58z" /><glyph unicode="ǃ" horiz-adv-x="310" d="M223,756l-137,-14l0,-507l137,0M155,164C104,164 65,123 65,74C65,24 104,-17 155,-17C205,-17 245,24 245,74C245,123 205,164 155,164z" /><glyph unicode="Ǆ" horiz-adv-x="1170" d="M1036,944l-134,-84l-132,84l-57,-65l141,-129l97,0l141,129M258,693l-193,0l0,-693l208,0C450,0 618,71 618,350C618,636 443,693 258,693M1138,693l-463,0l0,-127l276,0l-307,-443l0,-123l483,0l16,131l-306,0l301,438M281,574C377,574 448,536 448,350C448,166 382,119 283,119l-54,0l0,455z" /><glyph unicode="ǅ" horiz-adv-x="1097" d="M1009,813l-133,-91l-133,91l-57,-65l142,-137l96,0l141,137M258,693l-193,0l0,-693l208,0C450,0 618,71 618,350C618,636 443,693 258,693M281,574C377,574 448,536 448,350C448,166 382,119 283,119l-54,0l0,455M1079,531l-402,0l0,-119l220,0l-241,-300l0,-112l414,0l14,120l-245,0l240,300z" /><glyph unicode="ǆ" horiz-adv-x="1048" d="M875,611l141,137l-56,65l-133,-91l-133,91l-57,-65l142,-137M375,498C344,529 301,548 249,548C118,548 32,431 32,267C32,95 99,-17 234,-17C306,-17 354,18 385,62l8,-62l140,0l0,742l-158,17M790,120l240,300l0,111l-402,0l0,-119l220,0l-241,-300l0,-112l414,0l14,120M283,99C232,99 196,134 196,266C196,385 236,433 292,433C327,433 351,416 375,388l0,-229C350,119 321,99 283,99z" /><glyph unicode="Ǉ" horiz-adv-x="807" d="M229,693l-164,0l0,-693l417,0l17,130l-270,0M746,693l-164,0l0,-582C582,29 569,-18 479,-53l44,-116C640,-131 746,-70 746,105z" /><glyph unicode="ǈ" horiz-adv-x="783" d="M643,811C588,811 550,772 550,721C550,670 588,631 643,631C698,631 737,670 737,721C737,772 698,811 643,811M229,693l-164,0l0,-693l417,0l17,130l-270,0M722,531l-158,0l0,-481C564,-47 524,-75 456,-106l53,-115C633,-176 722,-113 722,60z" /><glyph unicode="ǉ" horiz-adv-x="580" d="M440,811C385,811 347,772 347,721C347,670 385,631 440,631C495,631 534,670 534,721C534,772 495,811 440,811M200,-17C239,-17 273,-9 296,1l-30,112C259,110 250,108 240,108C221,108 212,119 212,141l0,618l-158,-17l0,-607C54,38 108,-17 200,-17M519,531l-158,0l0,-481C361,-47 321,-75 253,-106l53,-115C430,-176 519,-113 519,60z" /><glyph unicode="Ǌ" horiz-adv-x="980" d="M599,693l-147,0l0,-280C452,302 465,211 474,155l-205,538l-204,0l0,-693l146,0l0,254C211,382 198,474 190,537l200,-537l209,0M919,693l-164,0l0,-582C755,29 742,-18 652,-53l44,-116C813,-131 919,-70 919,105z" /><glyph unicode="ǋ" horiz-adv-x="943" d="M803,811C748,811 710,772 710,721C710,670 748,631 803,631C858,631 897,670 897,721C897,772 858,811 803,811M599,693l-147,0l0,-280C452,302 465,211 474,155l-205,538l-204,0l0,-693l146,0l0,254C211,382 198,474 190,537l200,-537l209,0M882,531l-158,0l0,-481C724,-47 684,-75 616,-106l53,-115C793,-176 882,-113 882,60z" /><glyph unicode="ǌ" horiz-adv-x="853" d="M713,631C768,631 807,670 807,721C807,772 768,811 713,811C658,811 620,772 620,721C620,670 658,631 713,631M372,548C305,548 254,520 210,467l-12,64l-137,0l0,-531l158,0l0,363C246,407 276,432 311,432C342,432 361,417 361,361l0,-361l158,0l0,388C519,489 464,548 372,548M634,50C634,-47 594,-75 526,-106l53,-115C703,-176 792,-113 792,60l0,471l-158,0z" /><glyph unicode="Ǎ" horiz-adv-x="590" d="M429,944l-133,-84l-133,84l-57,-65l142,-129l96,0l141,129M430,0l174,0l-209,693l-199,0l-209,-693l170,0l35,149l203,0M220,268l73,306l73,-306z" /><glyph unicode="ǎ" horiz-adv-x="546" d="M402,813l-133,-91l-133,91l-57,-65l142,-137l96,0l141,137M482,154l0,206C482,483 416,548 262,548C202,548 129,534 62,509l36,-104C151,423 203,433 237,433C302,433 327,414 327,351l0,-23l-54,0C113,328 24,265 24,149C24,52 91,-17 197,-17C260,-17 319,4 357,62C382,10 423,-9 485,-14l33,103C493,98 482,113 482,154M243,96C204,96 182,121 182,163C182,216 216,241 288,241l39,0l0,-95C308,115 279,96 243,96z" /><glyph unicode="Ǐ" horiz-adv-x="293" d="M280,944l-133,-84l-133,84l-57,-65l142,-129l96,0l141,129M229,693l-164,0l0,-693l164,0z" /><glyph unicode="ǐ" horiz-adv-x="280" d="M273,813l-133,-91l-133,91l-57,-65l142,-137l96,0l141,137M219,531l-158,0l0,-531l158,0z" /><glyph unicode="Ǒ" horiz-adv-x="691" d="M479,944l-133,-84l-133,84l-57,-65l142,-129l96,0l141,129M345,710C150,710 33,573 33,347C33,116 150,-17 345,-17C541,-17 658,120 658,347C658,578 541,710 345,710M345,590C438,590 486,522 486,347C486,171 439,103 345,103C255,103 205,171 205,347C205,522 253,590 345,590z" /><glyph unicode="ǒ" horiz-adv-x="584" d="M425,813l-133,-91l-133,91l-57,-65l142,-137l96,0l141,137M292,548C130,548 32,436 32,266C32,87 131,-17 292,-17C454,-17 552,95 552,265C552,444 454,548 292,548M292,432C356,432 388,383 388,265C388,150 356,99 292,99C228,99 196,148 196,266C196,381 228,432 292,432z" /><glyph unicode="Ǔ" horiz-adv-x="651" d="M459,944l-133,-84l-133,84l-57,-65l142,-129l96,0l141,129M596,693l-164,0l0,-456C432,148 400,105 325,105C251,105 219,148 219,237l0,456l-164,0l0,-463C55,84 144,-17 325,-17C506,-17 596,90 596,230z" /><glyph unicode="ǔ" horiz-adv-x="568" d="M415,813l-133,-91l-133,91l-57,-65l142,-137l96,0l141,137M507,531l-158,0l0,-369C326,122 296,100 263,100C230,100 212,116 212,170l0,361l-158,0l0,-381C54,47 103,-17 202,-17C273,-17 325,11 363,67l7,-67l137,0z" /><glyph unicode="Ǖ" horiz-adv-x="651" d="M479,960l0,109l-305,0l0,-109M209,904C164,904 128,869 128,825C128,780 164,745 209,745C254,745 289,780 289,825C289,869 254,904 209,904M440,904C396,904 360,869 360,825C360,780 396,745 440,745C486,745 521,780 521,825C521,869 486,904 440,904M596,693l-164,0l0,-456C432,148 400,105 325,105C251,105 219,148 219,237l0,456l-164,0l0,-463C55,84 144,-17 325,-17C506,-17 596,90 596,230z" /><glyph unicode="ǖ" horiz-adv-x="568" d="M434,816l0,110l-305,0l0,-110M164,760C119,760 83,725 83,681C83,637 119,602 164,602C210,602 245,637 245,681C245,725 210,760 164,760M395,760C351,760 315,725 315,681C315,637 351,602 395,602C442,602 476,637 476,681C476,725 442,760 395,760M507,531l-158,0l0,-369C326,122 296,100 263,100C230,100 212,116 212,170l0,361l-158,0l0,-381C54,47 103,-17 202,-17C273,-17 325,11 363,67l7,-67l137,0z" /><glyph unicode="Ǘ" horiz-adv-x="651" d="M396,1097l-131,-171l59,-54l158,141M203,906C157,906 122,871 122,827C122,783 157,748 203,748C247,748 284,783 284,827C284,871 247,906 203,906M447,906C401,906 366,871 366,827C366,783 401,748 447,748C492,748 528,783 528,827C528,871 492,906 447,906M596,693l-164,0l0,-456C432,148 400,105 325,105C251,105 219,148 219,237l0,456l-164,0l0,-463C55,84 144,-17 325,-17C506,-17 596,90 596,230z" /><glyph unicode="ǘ" horiz-adv-x="568" d="M352,950l-131,-171l59,-54l158,141M159,759C113,759 78,724 78,680C78,636 113,601 159,601C203,601 240,636 240,680C240,724 203,759 159,759M403,759C357,759 322,724 322,680C322,636 357,601 403,601C448,601 484,636 484,680C484,724 448,759 403,759M507,531l-158,0l0,-369C326,122 296,100 263,100C230,100 212,116 212,170l0,361l-158,0l0,-381C54,47 103,-17 202,-17C273,-17 325,11 363,67l7,-67l137,0z" /><glyph unicode="Ǚ" horiz-adv-x="651" d="M457,1099l-134,-84l-132,84l-57,-64l141,-130l97,0l141,130M203,906C157,906 122,871 122,827C122,783 157,748 203,748C248,748 284,783 284,827C284,871 248,906 203,906M447,906C401,906 367,871 367,827C367,783 401,748 447,748C492,748 528,783 528,827C528,871 492,906 447,906M596,693l-164,0l0,-456C432,148 400,105 325,105C251,105 219,148 219,237l0,456l-164,0l0,-463C55,84 144,-17 325,-17C506,-17 596,90 596,230z" /><glyph unicode="ǚ" horiz-adv-x="568" d="M415,953l-133,-85l-133,85l-57,-65l142,-130l96,0l141,130M160,759C115,759 79,724 79,680C79,636 115,601 160,601C205,601 240,636 240,680C240,724 205,759 160,759M403,759C359,759 323,724 323,680C323,636 359,601 403,601C449,601 484,636 484,680C484,724 449,759 403,759M507,531l-158,0l0,-369C326,122 296,100 263,100C230,100 212,116 212,170l0,361l-158,0l0,-381C54,47 103,-17 202,-17C273,-17 325,11 363,67l7,-67l137,0z" /><glyph unicode="Ǜ" horiz-adv-x="651" d="M256,1097l-86,-84l158,-141l60,54M203,906C158,906 122,871 122,827C122,783 158,748 203,748C249,748 284,783 284,827C284,871 249,906 203,906M447,906C402,906 366,871 366,827C366,783 402,748 447,748C493,748 528,783 528,827C528,871 493,906 447,906M596,693l-164,0l0,-456C432,148 400,105 325,105C251,105 219,148 219,237l0,456l-164,0l0,-463C55,84 144,-17 325,-17C506,-17 596,90 596,230z" /><glyph unicode="ǜ" horiz-adv-x="568" d="M212,950l-86,-84l158,-141l60,54M159,759C114,759 78,724 78,680C78,636 114,601 159,601C205,601 240,636 240,680C240,724 205,759 159,759M403,759C358,759 322,724 322,680C322,636 358,601 403,601C449,601 484,636 484,680C484,724 449,759 403,759M507,531l-158,0l0,-369C326,122 296,100 263,100C230,100 212,116 212,170l0,361l-158,0l0,-381C54,47 103,-17 202,-17C273,-17 325,11 363,67l7,-67l137,0z" /><glyph unicode="ǝ" horiz-adv-x="557" d="M270,548C182,548 117,522 65,480l65,-88C177,424 217,436 265,436C330,436 367,398 372,312l-340,0C30,295 29,272 29,255C29,83 126,-17 274,-17C437,-17 525,105 525,266C525,433 446,548 270,548M274,95C212,95 179,139 178,210l0,7l194,0C367,127 333,95 274,95z" /><glyph unicode="Ǟ" horiz-adv-x="590" d="M450,960l0,109l-305,0l0,-109M180,904C135,904 99,869 99,825C99,780 135,745 180,745C225,745 260,780 260,825C260,869 225,904 180,904M411,904C367,904 331,869 331,825C331,780 367,745 411,745C457,745 492,780 492,825C492,869 457,904 411,904M430,0l174,0l-209,693l-199,0l-209,-693l170,0l35,149l203,0M220,268l73,306l73,-306z" /><glyph unicode="ǟ" horiz-adv-x="546" d="M422,816l0,110l-305,0l0,-110M152,760C107,760 71,725 71,681C71,637 107,602 152,602C198,602 233,637 233,681C233,725 198,760 152,760M383,760C339,760 303,725 303,681C303,637 339,602 383,602C430,602 464,637 464,681C464,725 430,760 383,760M482,154l0,206C482,483 416,548 262,548C202,548 129,534 62,509l36,-104C151,423 203,433 237,433C302,433 327,414 327,351l0,-23l-54,0C113,328 24,265 24,149C24,52 91,-17 197,-17C260,-17 319,4 357,62C382,10 423,-9 485,-14l33,103C493,98 482,113 482,154M243,96C204,96 182,121 182,163C182,216 216,241 288,241l39,0l0,-95C308,115 279,96 243,96z" /><glyph unicode="Ǡ" horiz-adv-x="590" d="M448,967l0,109l-305,0l0,-109M294,915C239,915 201,876 201,825C201,775 239,736 294,736C349,736 387,775 387,825C387,876 349,915 294,915M430,0l174,0l-209,693l-199,0l-209,-693l170,0l35,149l203,0M220,268l73,306l73,-306z" /><glyph unicode="ǡ" horiz-adv-x="546" d="M422,837l0,109l-306,0l0,-109M268,773C213,773 175,734 175,683C175,633 213,594 268,594C323,594 362,633 362,683C362,734 323,773 268,773M482,154l0,206C482,483 416,548 262,548C202,548 129,534 62,509l36,-104C151,423 203,433 237,433C302,433 327,414 327,351l0,-23l-54,0C113,328 24,265 24,149C24,52 91,-17 197,-17C260,-17 319,4 357,62C382,10 423,-9 485,-14l33,103C493,98 482,113 482,154M243,96C204,96 182,121 182,163C182,216 216,241 288,241l39,0l0,-95C308,115 279,96 243,96z" /><glyph unicode="Ǣ" horiz-adv-x="845" d="M635,891l-305,0l0,-110l305,0M582,118l-36,175l220,0l0,115l-244,0l-34,168l270,0l17,117l-526,0l-272,-693l176,0l50,149l215,0l26,-149l368,0l0,118M243,268l102,305l53,-305z" /><glyph unicode="ǣ" horiz-adv-x="855" d="M579,765l-305,0l0,-110l305,0M826,276C826,448 733,548 593,548C522,548 470,522 431,481C399,522 350,548 269,548C208,548 135,534 69,509l35,-105C157,422 209,432 244,432C308,432 333,412 333,350l0,-22l-54,0C114,328 24,265 24,149C24,52 91,-17 201,-17C275,-17 342,6 389,74C433,18 504,-17 600,-17C686,-17 754,15 807,57l-65,88C696,113 658,98 615,98C549,98 504,124 494,219l329,0C825,235 826,259 826,276M670,314l-176,0C501,409 532,443 584,443C648,443 670,393 670,321M251,96C212,96 191,120 191,160C191,215 225,238 295,238l40,0l0,-4C336,208 340,183 346,160C320,120 291,96 251,96z" /><glyph unicode="Ǥ" horiz-adv-x="665" d="M663,271l-63,0l0,143l-265,0l14,-100l104,0l0,-43l-108,0l0,-95l108,0l0,-51C417,110 384,103 347,103C251,103 203,165 203,347C203,519 275,591 372,591C428,591 466,574 514,538l82,87C538,675 466,710 364,710C180,710 33,582 33,347C33,110 139,-17 350,-17C439,-17 529,10 600,56l0,120l63,0z" /><glyph unicode="ǥ" horiz-adv-x="551" d="M587,-20l-51,0C522,59 447,111 335,111l-80,0C204,111 197,124 197,140C197,152 203,164 214,170C233,166 253,164 275,164C413,164 498,239 498,342C498,411 465,450 398,479C465,479 514,485 551,500l-37,117C450,579 382,545 264,548C125,548 31,474 31,354C31,285 58,238 126,202C88,178 63,145 63,105C63,53 110,10 226,10l77,0C346,10 377,0 391,-20l-123,0l0,-67l124,0C376,-112 337,-123 264,-123C168,-123 148,-104 148,-51l-142,0C6,-156 59,-222 260,-222C418,-222 511,-172 533,-87l54,0M268,444C321,444 348,417 348,358C348,297 320,266 268,266C220,266 188,298 188,356C188,411 219,444 268,444z" /><glyph unicode="Ǩ" horiz-adv-x="633" d="M463,944l-133,-84l-133,84l-57,-65l142,-129l96,0l141,129M229,693l-164,0l0,-693l164,0M627,693l-173,0l-220,-323l221,-370l190,0l-239,382z" /><glyph unicode="ǩ" horiz-adv-x="551" d="M429,993l-133,-84l-133,84l-57,-65l142,-129l96,0l141,129M219,759l-158,-17l0,-742l158,0M547,531l-161,0l-162,-241l158,-290l178,0l-174,298z" /><glyph unicode="Ǫ" horiz-adv-x="691" d="M658,347C658,578 541,710 345,710C150,710 33,573 33,347C33,140 127,11 288,-13C248,-42 225,-80 225,-129C225,-201 287,-246 372,-246C398,-246 420,-243 442,-238l11,98C430,-145 411,-148 392,-148C356,-148 339,-132 339,-102C339,-74 358,-37 457,0C585,44 658,167 658,347M345,103C255,103 205,171 205,347C205,522 253,590 345,590C438,590 486,522 486,347C486,171 439,103 345,103z" /><glyph unicode="ǫ" horiz-adv-x="584" d="M383,-3C490,31 552,130 552,265C552,444 454,548 292,548C130,548 32,436 32,266C32,113 104,15 226,-11C184,-40 160,-79 160,-129C160,-201 222,-246 307,-246C333,-246 355,-243 377,-238l11,98C365,-145 346,-148 327,-148C291,-148 274,-132 274,-102C274,-75 292,-39 383,-3M292,432C356,432 388,383 388,265C388,150 356,99 292,99C228,99 196,148 196,266C196,381 228,432 292,432z" /><glyph unicode="Ǭ" horiz-adv-x="691" d="M497,891l-305,0l0,-110l305,0M658,347C658,578 541,710 345,710C150,710 33,573 33,347C33,140 127,11 288,-13C248,-42 225,-80 225,-129C225,-201 287,-246 372,-246C398,-246 420,-243 442,-238l11,98C430,-145 411,-148 392,-148C356,-148 339,-132 339,-102C339,-74 358,-37 457,0C585,44 658,167 658,347M345,103C255,103 205,171 205,347C205,522 253,590 345,590C438,590 486,522 486,347C486,171 439,103 345,103z" /><glyph unicode="ǭ" horiz-adv-x="584" d="M444,765l-305,0l0,-110l305,0M383,-3C490,31 552,130 552,265C552,444 454,548 292,548C130,548 32,436 32,266C32,113 104,15 226,-11C184,-40 160,-79 160,-129C160,-201 222,-246 307,-246C333,-246 355,-243 377,-238l11,98C365,-145 346,-148 327,-148C291,-148 274,-132 274,-102C274,-75 292,-39 383,-3M292,432C356,432 388,383 388,265C388,150 356,99 292,99C228,99 196,148 196,266C196,381 228,432 292,432z" /><glyph unicode="Ǯ" horiz-adv-x="547" d="M313,750l141,129l-56,65l-133,-84l-133,84l-57,-65l142,-129M307,403l178,175l0,115l-442,0l0,-119l261,0l-177,-174l0,-92l99,0C303,308 351,281 351,212C351,143 307,105 235,105C174,105 134,124 88,167l-84,-82C58,21 132,-17 243,-17C420,-17 520,81 520,205C520,324 445,397 307,403z" /><glyph unicode="ǯ" horiz-adv-x="505" d="M292,611l141,137l-56,65l-133,-91l-133,91l-57,-65l142,-137M276,213l184,210l0,108l-433,0l0,-118l255,0l-171,-201l0,-92l92,0C286,120 329,93 329,19C329,-63 283,-101 214,-101C158,-101 118,-82 71,-39l-83,-80C41,-183 115,-222 223,-222C392,-222 492,-123 492,9C492,139 413,204 276,213z" /><glyph unicode="ǰ" horiz-adv-x="280" d="M274,813l-133,-91l-133,91l-57,-65l142,-137l96,0l141,137M219,531l-158,0l0,-481C61,-47 21,-75 -47,-106l53,-115C130,-176 219,-113 219,60z" /><glyph unicode="Ǳ" horiz-adv-x="1170" d="M258,693l-193,0l0,-693l208,0C450,0 618,71 618,350C618,636 443,693 258,693M1138,693l-463,0l0,-127l276,0l-307,-443l0,-123l483,0l16,131l-306,0l301,438M281,574C377,574 448,536 448,350C448,166 382,119 283,119l-54,0l0,455z" /><glyph unicode="ǲ" horiz-adv-x="1097" d="M258,693l-193,0l0,-693l208,0C450,0 618,71 618,350C618,636 443,693 258,693M281,574C377,574 448,536 448,350C448,166 382,119 283,119l-54,0l0,455M1079,531l-402,0l0,-119l220,0l-241,-300l0,-112l414,0l14,120l-245,0l240,300z" /><glyph unicode="ǳ" horiz-adv-x="1048" d="M375,498C344,529 301,548 249,548C118,548 32,431 32,267C32,95 99,-17 234,-17C306,-17 354,18 385,62l8,-62l140,0l0,742l-158,17M790,120l240,300l0,111l-402,0l0,-119l220,0l-241,-300l0,-112l414,0l14,120M283,99C232,99 196,134 196,266C196,385 236,433 292,433C327,433 351,416 375,388l0,-229C350,119 321,99 283,99z" /><glyph unicode="Ǵ" horiz-adv-x="645" d="M433,956l-221,-125l40,-80l240,87M365,710C179,710 33,582 33,347C33,110 139,-17 351,-17C438,-17 528,10 600,56l0,343l-265,0l16,-116l90,0l0,-157C412,110 381,103 347,103C251,103 203,165 203,347C203,519 275,591 372,591C428,591 466,574 513,538l83,87C539,675 466,710 365,710z" /><glyph unicode="ǵ" horiz-adv-x="551" d="M347,835l-218,-132l44,-81l236,95M514,617C450,579 382,545 264,548C125,548 31,474 31,354C31,285 58,238 126,202C88,178 63,139 63,100C63,43 110,-5 226,-5l77,0C356,-5 379,-26 379,-57C379,-91 357,-117 264,-117C168,-117 148,-97 148,-51l-142,0C6,-156 59,-222 260,-222C442,-222 538,-155 538,-46C538,43 459,108 335,108l-80,0C204,108 197,124 197,140C197,152 203,164 214,170C233,166 253,164 275,164C413,164 498,239 498,342C498,411 465,450 398,479C465,479 514,485 551,500M268,444C321,444 348,417 348,358C348,297 320,266 268,266C220,266 188,298 188,356C188,411 219,444 268,444z" /><glyph unicode="Ƕ" horiz-adv-x="951" d="M880,531l-156,0C740,438 751,343 751,261C751,138 704,99 661,99C624,99 601,122 601,183l0,510l-164,0l0,-268l-208,0l0,268l-164,0l0,-693l164,0l0,297l208,0l0,-117C437,43 534,-17 650,-17C777,-17 909,59 909,248C909,359 895,450 880,531z" /><glyph unicode="Ƿ" horiz-adv-x="600" d="M387,710C322,710 268,689 229,650l0,43l-164,0l0,-693l164,0l0,202l75,28C455,286 578,353 578,517C578,636 491,710 387,710M270,334l-41,-17l0,236C257,578 291,592 329,592C378,592 409,564 409,508C409,430 363,375 270,334z" /><glyph unicode="Ǹ" horiz-adv-x="663" d="M251,956l-59,-118l240,-87l40,80M599,693l-147,0l0,-280C452,302 465,211 474,155l-205,538l-204,0l0,-693l146,0l0,254C211,382 198,474 190,537l200,-537l209,0z" /><glyph unicode="ǹ" horiz-adv-x="573" d="M443,703l-218,132l-62,-118l236,-95M372,548C305,548 254,520 210,467l-12,64l-137,0l0,-531l158,0l0,363C246,407 276,432 311,432C342,432 361,417 361,361l0,-361l158,0l0,388C519,489 464,548 372,548z" /><glyph unicode="Ȁ" horiz-adv-x="590" d="M165,986l-106,-53l122,-182l81,38M341,986l-108,-50l113,-180l83,33M430,0l174,0l-209,693l-199,0l-209,-693l170,0l35,149l203,0M220,268l73,306l73,-306z" /><glyph unicode="ȁ" horiz-adv-x="546" d="M150,860l-106,-53l122,-182l81,38M326,860l-108,-50l113,-180l83,33M482,154l0,206C482,483 416,548 262,548C202,548 129,534 62,509l36,-104C151,423 203,433 237,433C302,433 327,414 327,351l0,-23l-54,0C113,328 24,265 24,149C24,52 91,-17 197,-17C260,-17 319,4 357,62C382,10 423,-9 485,-14l33,103C493,98 482,113 482,154M243,96C204,96 182,121 182,163C182,216 216,241 288,241l39,0l0,-95C308,115 279,96 243,96z" /><glyph unicode="Ȃ" horiz-adv-x="590" d="M295,951C190,951 131,874 123,779l87,-15C222,812 249,841 295,841C341,841 368,812 381,764l87,15C460,874 400,951 295,951M430,0l174,0l-209,693l-199,0l-209,-693l170,0l35,149l203,0M220,268l73,306l73,-306z" /><glyph unicode="ȃ" horiz-adv-x="546" d="M269,789C164,789 105,712 97,617l87,-15C196,650 223,679 269,679C315,679 342,650 355,602l87,15C434,712 374,789 269,789M482,154l0,206C482,483 416,548 262,548C202,548 129,534 62,509l36,-104C151,423 203,433 237,433C302,433 327,414 327,351l0,-23l-54,0C113,328 24,265 24,149C24,52 91,-17 197,-17C260,-17 319,4 357,62C382,10 423,-9 485,-14l33,103C493,98 482,113 482,154M243,96C204,96 182,121 182,163C182,216 216,241 288,241l39,0l0,-95C308,115 279,96 243,96z" /><glyph unicode="Ȅ" horiz-adv-x="526" d="M148,986l-106,-53l122,-182l81,38M324,986l-108,-50l113,-180l83,33M490,693l-425,0l0,-693l425,0l0,118l-261,0l0,177l213,0l0,115l-213,0l0,166l244,0z" /><glyph unicode="ȅ" horiz-adv-x="554" d="M163,860l-106,-53l122,-182l81,38M339,860l-108,-50l113,-180l83,33M525,276C525,448 432,548 280,548C119,548 32,422 32,263C32,97 122,-17 299,-17C385,-17 453,15 506,57l-65,88C395,113 357,98 314,98C249,98 204,124 194,219l328,0C524,235 525,259 525,276M370,314l-177,0C201,410 231,443 284,443C347,443 369,393 370,321z" /><glyph unicode="Ȇ" horiz-adv-x="526" d="M278,951C173,951 114,874 106,779l87,-15C205,812 232,841 278,841C324,841 351,812 364,764l87,15C443,874 383,951 278,951M490,693l-425,0l0,-693l425,0l0,118l-261,0l0,177l213,0l0,115l-213,0l0,166l244,0z" /><glyph unicode="ȇ" horiz-adv-x="554" d="M282,789C177,789 118,712 110,617l87,-15C209,650 236,679 282,679C328,679 355,650 368,602l87,15C447,712 387,789 282,789M525,276C525,448 432,548 280,548C119,548 32,422 32,263C32,97 122,-17 299,-17C385,-17 453,15 506,57l-65,88C395,113 357,98 314,98C249,98 204,124 194,219l328,0C524,235 525,259 525,276M370,314l-177,0C201,410 231,443 284,443C347,443 369,393 370,321z" /><glyph unicode="Ȉ" horiz-adv-x="293" d="M16,986l-106,-53l122,-182l81,38M192,986l-108,-50l113,-180l83,33M229,693l-164,0l0,-693l164,0z" /><glyph unicode="ȉ" horiz-adv-x="280" d="M20,860l-106,-53l122,-182l81,38M196,860l-108,-50l113,-180l83,33M219,531l-158,0l0,-531l158,0z" /><glyph unicode="Ȋ" horiz-adv-x="293" d="M146,951C41,951 -18,874 -26,779l87,-15C73,812 100,841 146,841C192,841 219,812 232,764l87,15C311,874 251,951 146,951M229,693l-164,0l0,-693l164,0z" /><glyph unicode="ȋ" horiz-adv-x="280" d="M139,789C34,789 -25,712 -33,617l87,-15C66,650 93,679 139,679C185,679 212,650 225,602l87,15C304,712 244,789 139,789M219,531l-158,0l0,-531l158,0z" /><glyph unicode="Ȍ" horiz-adv-x="691" d="M215,986l-106,-53l122,-182l81,38M391,986l-108,-50l113,-180l83,33M345,710C150,710 33,573 33,347C33,116 150,-17 345,-17C541,-17 658,120 658,347C658,578 541,710 345,710M345,590C438,590 486,522 486,347C486,171 439,103 345,103C255,103 205,171 205,347C205,522 253,590 345,590z" /><glyph unicode="ȍ" horiz-adv-x="584" d="M173,860l-106,-53l122,-182l81,38M349,860l-108,-50l113,-180l83,33M292,548C130,548 32,436 32,266C32,87 131,-17 292,-17C454,-17 552,95 552,265C552,444 454,548 292,548M292,432C356,432 388,383 388,265C388,150 356,99 292,99C228,99 196,148 196,266C196,381 228,432 292,432z" /><glyph unicode="Ȏ" horiz-adv-x="691" d="M345,951C240,951 181,874 173,779l87,-15C272,812 299,841 345,841C391,841 418,812 431,764l87,15C510,874 450,951 345,951M345,710C150,710 33,573 33,347C33,116 150,-17 345,-17C541,-17 658,120 658,347C658,578 541,710 345,710M345,590C438,590 486,522 486,347C486,171 439,103 345,103C255,103 205,171 205,347C205,522 253,590 345,590z" /><glyph unicode="ȏ" horiz-adv-x="584" d="M291,789C186,789 127,712 119,617l87,-15C218,650 245,679 291,679C337,679 364,650 377,602l87,15C456,712 396,789 291,789M292,548C130,548 32,436 32,266C32,87 131,-17 292,-17C454,-17 552,95 552,265C552,444 454,548 292,548M292,432C356,432 388,383 388,265C388,150 356,99 292,99C228,99 196,148 196,266C196,381 228,432 292,432z" /><glyph unicode="Ȑ" horiz-adv-x="617" d="M267,789l-97,197l-106,-53l122,-182M434,789l-88,197l-108,-50l113,-180M435,0l185,0l-176,295C534,336 577,391 577,482C577,626 480,693 292,693l-227,0l0,-693l164,0l0,265l64,0M229,578l59,0C369,578 408,549 408,482C408,409 370,378 298,378l-69,0z" /><glyph unicode="ȑ" horiz-adv-x="400" d="M210,663l-97,197l-106,-53l122,-182M377,663l-88,197l-108,-50l113,-180M349,546C288,546 236,502 212,428l-14,103l-137,0l0,-531l158,0l0,267C237,346 264,393 329,393C346,393 360,390 377,386l25,153C384,544 369,546 349,546z" /><glyph unicode="Ȓ" horiz-adv-x="617" d="M300,841C346,841 373,812 386,764l87,15C465,874 405,951 300,951C195,951 136,874 128,779l87,-15C227,812 254,841 300,841M435,0l185,0l-176,295C534,336 577,391 577,482C577,626 480,693 292,693l-227,0l0,-693l164,0l0,265l64,0M229,578l59,0C369,578 408,549 408,482C408,409 370,378 298,378l-69,0z" /><glyph unicode="ȓ" horiz-adv-x="400" d="M232,679C278,679 305,650 318,602l87,15C397,712 337,789 232,789C127,789 68,712 60,617l87,-15C159,650 186,679 232,679M212,428l-14,103l-137,0l0,-531l158,0l0,267C237,346 264,393 329,393C346,393 360,390 377,386l25,153C384,544 369,546 349,546C288,546 236,502 212,428z" /><glyph unicode="Ȕ" horiz-adv-x="651" d="M195,986l-106,-53l122,-182l81,38M371,986l-108,-50l113,-180l83,33M596,693l-164,0l0,-456C432,148 400,105 325,105C251,105 219,148 219,237l0,456l-164,0l0,-463C55,84 144,-17 325,-17C506,-17 596,90 596,230z" /><glyph unicode="ȕ" horiz-adv-x="568" d="M162,860l-106,-53l122,-182l81,38M338,860l-108,-50l113,-180l83,33M507,531l-158,0l0,-369C326,122 296,100 263,100C230,100 212,116 212,170l0,361l-158,0l0,-381C54,47 103,-17 202,-17C273,-17 325,11 363,67l7,-67l137,0z" /><glyph unicode="Ȗ" horiz-adv-x="651" d="M325,951C220,951 161,874 153,779l87,-15C252,812 279,841 325,841C371,841 398,812 411,764l87,15C490,874 430,951 325,951M596,693l-164,0l0,-456C432,148 400,105 325,105C251,105 219,148 219,237l0,456l-164,0l0,-463C55,84 144,-17 325,-17C506,-17 596,90 596,230z" /><glyph unicode="ȗ" horiz-adv-x="568" d="M281,789C176,789 117,712 109,617l87,-15C208,650 235,679 281,679C327,679 354,650 367,602l87,15C446,712 386,789 281,789M507,531l-158,0l0,-369C326,122 296,100 263,100C230,100 212,116 212,170l0,361l-158,0l0,-381C54,47 103,-17 202,-17C273,-17 325,11 363,67l7,-67l137,0z" /><glyph unicode="Ș" horiz-adv-x="572" d="M288,710C144,710 38,632 38,510C38,407 95,343 250,295C351,264 377,241 377,190C377,137 335,105 267,105C198,105 143,130 92,173l-83,-91C66,27 152,-17 272,-17C445,-17 547,73 547,202C547,330 472,384 341,426C233,460 207,478 207,522C207,566 243,590 300,590C356,590 404,571 452,532l76,89C467,679 394,710 288,710M284,-68C238,-68 205,-103 205,-145C205,-174 219,-195 238,-210l-27,-115l79,0l46,96C355,-191 363,-171 363,-145C363,-101 330,-68 284,-68z" /><glyph unicode="ș" horiz-adv-x="480" d="M249,548C115,548 32,477 32,386C32,304 84,250 189,220C285,193 301,182 301,146C301,114 272,96 224,96C172,96 123,117 83,148l-77,-86C58,15 136,-17 228,-17C360,-17 464,48 464,158C464,253 405,297 300,327C205,355 191,367 191,395C191,419 212,435 255,435C301,435 345,420 386,394l58,89C395,523 326,548 249,548M243,-68C197,-68 164,-103 164,-145C164,-174 178,-195 197,-210l-27,-115l79,0l46,96C314,-191 322,-171 322,-145C322,-101 289,-68 243,-68z" /><glyph unicode="Ț" horiz-adv-x="540" d="M539,693l-530,0l0,-126l179,0l0,-567l164,0l0,567l171,0M271,-68C225,-68 192,-103 192,-145C192,-174 206,-195 225,-210l-27,-115l79,0l46,96C342,-191 350,-171 350,-145C350,-101 317,-68 271,-68z" /><glyph unicode="ț" horiz-adv-x="386" d="M395,25l-53,100C321,113 303,108 285,108C252,108 235,126 235,177l0,244l105,0l17,110l-122,0l0,133l-158,-18l0,-115l-75,0l0,-110l75,0l0,-246C77,50 134,-16 251,-17C299,-17 355,-3 395,25M235,-68C189,-68 156,-103 156,-145C156,-174 170,-195 189,-210l-27,-115l79,0l46,96C306,-191 314,-171 314,-145C314,-101 281,-68 235,-68z" /><glyph unicode="Ȝ" horiz-adv-x="520" d="M236,710C142,710 62,679 -2,618l76,-83C122,573 167,591 214,591C279,591 305,555 305,505C305,446 267,414 201,414l-56,0l-20,-118l73,0C282,296 322,264 322,202C322,124 274,64 56,8l13,-121C375,-57 494,62 494,195C494,298 425,346 318,358C422,379 473,438 473,523C473,632 384,710 236,710z" /><glyph unicode="ȝ" horiz-adv-x="477" d="M214,548C128,548 61,527 3,486l72,-82C111,426 145,439 192,439C233,439 263,422 263,380C263,334 234,314 181,314l-51,0l-10,-102l95,0C260,212 285,196 285,159C284,91 211,48 44,-3l15,-104C309,-57 449,39 449,155C449,226 398,268 306,273C384,293 422,331 422,396C422,494 329,548 214,548z" /><glyph unicode="Ȟ" horiz-adv-x="666" d="M466,944l-133,-84l-133,84l-57,-65l142,-129l96,0l141,129M437,0l164,0l0,693l-164,0l0,-268l-208,0l0,268l-164,0l0,-693l164,0l0,297l208,0z" /><glyph unicode="ȟ" horiz-adv-x="573" d="M335,799l141,129l-56,65l-133,-84l-133,84l-57,-65l142,-129M372,548C309,548 262,523 219,474l0,284l-158,-16l0,-742l158,0l0,364C246,407 276,432 311,432C341,432 361,417 361,361l0,-361l158,0l0,388C519,489 463,548 372,548z" /><glyph unicode="Ƞ" horiz-adv-x="654" d="M415,710C331,710 277,681 221,627l-13,66l-143,0l0,-693l164,0l0,520C270,564 304,588 358,588C410,588 431,558 431,499l0,-709l164,0l0,735C595,630 538,710 415,710z" /><glyph unicode="ȡ" horiz-adv-x="783" d="M670,245C606,245 568,215 537,147C534,158 533,173 533,190l0,552l-158,17l0,-261C344,529 301,548 252,548C115,548 32,431 32,267C32,95 99,-17 234,-17C310,-17 362,21 400,82C417,50 442,28 471,12l-31,-66l78,-30l31,71C566,-16 583,-17 599,-17C707,-17 791,31 791,131C791,202 738,245 670,245M284,99C232,99 196,134 196,266C196,385 236,433 293,433C328,433 351,416 375,388l0,-194C375,183 376,172 377,161C351,120 322,99 284,99M622,97C613,97 605,97 598,98C619,146 632,160 654,160C671,160 681,150 681,133C681,109 660,97 622,97z" /><glyph unicode="Ȣ" horiz-adv-x="651" d="M487,400C546,432 578,484 578,551l0,142l-164,0l0,-149C414,490 394,449 326,449C258,449 238,486 238,544l0,149l-164,0l0,-142C74,481 105,429 163,398C80,365 33,302 33,217C33,88 143,-17 325,-17C508,-17 618,93 618,218C618,306 571,368 487,400M325,103C247,103 205,146 205,219C205,289 246,334 325,334C406,334 446,289 446,220C446,146 407,103 325,103z" /><glyph unicode="ȣ" horiz-adv-x="578" d="M427,417C480,447 509,494 509,555l0,187l-156,0l0,-212C353,484 337,459 289,459C243,459 226,488 226,530l0,212l-156,0l0,-187C70,489 97,443 149,415C73,383 32,318 32,225C32,88 124,-17 289,-17C454,-17 546,92 546,225C546,323 504,386 427,417M289,99C225,99 195,141 195,226C195,310 224,355 289,355C355,355 383,310 383,227C383,141 356,99 289,99z" /><glyph unicode="Ȥ" horiz-adv-x="538" d="M512,693l-463,0l0,-127l276,0l-307,-443l0,-123l335,0l0,-42C353,-83 333,-103 295,-103C261,-103 245,-94 221,-82l-53,-97C199,-203 244,-222 309,-222C429,-222 510,-159 510,-31l0,162l-299,0l301,438z" /><glyph unicode="ȥ" horiz-adv-x="448" d="M436,531l-402,0l0,-119l220,0l-241,-300l0,-112l271,0l0,-46C284,-87 261,-107 225,-107C191,-107 174,-98 150,-86l-53,-93C129,-203 173,-222 237,-222C356,-222 435,-158 435,-31l0,151l-239,0l240,300z" /><glyph unicode="Ȧ" horiz-adv-x="590" d="M295,937C240,937 202,898 202,847C202,796 240,757 295,757C350,757 389,796 389,847C389,898 350,937 295,937M430,0l174,0l-209,693l-199,0l-209,-693l170,0l35,149l203,0M220,268l73,306l73,-306z" /><glyph unicode="ȧ" horiz-adv-x="546" d="M268,811C213,811 175,772 175,721C175,670 213,631 268,631C323,631 362,670 362,721C362,772 323,811 268,811M482,154l0,206C482,483 416,548 262,548C202,548 129,534 62,509l36,-104C151,423 203,433 237,433C302,433 327,414 327,351l0,-23l-54,0C113,328 24,265 24,149C24,52 91,-17 197,-17C260,-17 319,4 357,62C382,10 423,-9 485,-14l33,103C493,98 482,113 482,154M243,96C204,96 182,121 182,163C182,216 216,241 288,241l39,0l0,-95C308,115 279,96 243,96z" /><glyph unicode="Ȩ" horiz-adv-x="526" d="M229,295l213,0l0,115l-213,0l0,166l244,0l17,117l-425,0l0,-693l165,0l-13,-112C281,-112 309,-122 309,-146C309,-168 290,-176 262,-176C237,-176 218,-169 198,-159l-36,-73C187,-249 227,-262 274,-262C365,-262 423,-215 423,-147C423,-93 391,-56 319,-48l0,48l171,0l0,118l-261,0z" /><glyph unicode="ȩ" horiz-adv-x="554" d="M525,276C525,448 432,548 280,548C119,548 32,422 32,263C32,114 104,7 247,-13l-12,-99C299,-112 327,-122 327,-146C327,-168 308,-176 280,-176C255,-176 236,-169 216,-159l-36,-73C205,-249 245,-262 292,-262C383,-262 441,-215 441,-147C441,-93 409,-56 337,-48l0,33C405,-7 461,21 506,57l-65,88C395,113 357,98 314,98C249,98 204,124 193,219l329,0C524,235 525,259 525,276M370,314l-177,0C200,409 231,443 284,443C347,443 369,393 370,321z" /><glyph unicode="Ȫ" horiz-adv-x="691" d="M499,960l0,109l-305,0l0,-109M229,904C184,904 148,869 148,825C148,780 184,745 229,745C274,745 309,780 309,825C309,869 274,904 229,904M460,904C416,904 380,869 380,825C380,780 416,745 460,745C506,745 541,780 541,825C541,869 506,904 460,904M345,710C150,710 33,573 33,347C33,116 150,-17 345,-17C541,-17 658,120 658,347C658,578 541,710 345,710M345,590C438,590 486,522 486,347C486,171 439,103 345,103C255,103 205,171 205,347C205,522 253,590 345,590z" /><glyph unicode="ȫ" horiz-adv-x="584" d="M445,816l0,110l-305,0l0,-110M175,760C130,760 94,725 94,681C94,637 130,602 175,602C221,602 256,637 256,681C256,725 221,760 175,760M406,760C362,760 326,725 326,681C326,637 362,602 406,602C453,602 487,637 487,681C487,725 453,760 406,760M292,548C130,548 32,436 32,266C32,87 131,-17 292,-17C454,-17 552,95 552,265C552,444 454,548 292,548M292,432C356,432 388,383 388,265C388,150 356,99 292,99C228,99 196,148 196,266C196,381 228,432 292,432z" /><glyph unicode="Ȭ" horiz-adv-x="691" d="M497,961l0,109l-305,0l0,-109M403,756C462,756 507,806 533,873l-79,38C438,882 424,868 402,868C386,868 374,876 356,889C335,903 317,913 286,913C226,913 182,859 157,795l79,-39C252,785 265,800 289,800C306,800 318,792 336,778C356,764 375,756 403,756M345,710C150,710 33,573 33,347C33,116 150,-17 345,-17C541,-17 658,120 658,347C658,578 541,710 345,710M345,590C438,590 486,522 486,347C486,171 439,103 345,103C255,103 205,171 205,347C205,522 253,590 345,590z" /><glyph unicode="ȭ" horiz-adv-x="584" d="M444,799l0,109l-305,0l0,-109M350,594C409,594 454,644 480,711l-79,38C385,720 371,706 349,706C333,706 321,714 303,727C282,741 264,751 233,751C173,751 129,697 104,633l79,-39C199,623 212,638 236,638C253,638 265,630 283,616C303,602 322,594 350,594M292,548C130,548 32,436 32,266C32,87 131,-17 292,-17C454,-17 552,95 552,265C552,444 454,548 292,548M292,432C356,432 388,383 388,265C388,150 356,99 292,99C228,99 196,148 196,266C196,381 228,432 292,432z" /><glyph unicode="Ȯ" horiz-adv-x="691" d="M345,937C290,937 252,898 252,847C252,796 290,757 345,757C400,757 439,796 439,847C439,898 400,937 345,937M345,710C150,710 33,573 33,347C33,116 150,-17 345,-17C541,-17 658,120 658,347C658,578 541,710 345,710M345,590C438,590 486,522 486,347C486,171 439,103 345,103C255,103 205,171 205,347C205,522 253,590 345,590z" /><glyph unicode="ȯ" horiz-adv-x="584" d="M291,811C236,811 198,772 198,721C198,670 236,631 291,631C346,631 385,670 385,721C385,772 346,811 291,811M292,548C130,548 32,436 32,266C32,87 131,-17 292,-17C454,-17 552,95 552,265C552,444 454,548 292,548M292,432C356,432 388,383 388,265C388,150 356,99 292,99C228,99 196,148 196,266C196,381 228,432 292,432z" /><glyph unicode="Ȱ" horiz-adv-x="691" d="M498,967l0,109l-305,0l0,-109M344,915C289,915 251,876 251,825C251,775 289,736 344,736C399,736 437,775 437,825C437,876 399,915 344,915M345,710C150,710 33,573 33,347C33,116 150,-17 345,-17C541,-17 658,120 658,347C658,578 541,710 345,710M345,590C438,590 486,522 486,347C486,171 439,103 345,103C255,103 205,171 205,347C205,522 253,590 345,590z" /><glyph unicode="ȱ" horiz-adv-x="584" d="M445,837l0,109l-306,0l0,-109M291,773C236,773 198,734 198,683C198,633 236,594 291,594C346,594 385,633 385,683C385,734 346,773 291,773M292,548C130,548 32,436 32,266C32,87 131,-17 292,-17C454,-17 552,95 552,265C552,444 454,548 292,548M292,432C356,432 388,383 388,265C388,150 356,99 292,99C228,99 196,148 196,266C196,381 228,432 292,432z" /><glyph unicode="Ȳ" horiz-adv-x="594" d="M449,781l0,110l-305,0l0,-110M601,693l-173,0l-128,-305l-128,305l-179,0l222,-434l0,-259l164,0l0,260z" /><glyph unicode="ȳ" horiz-adv-x="518" d="M411,655l0,110l-305,0l0,-110M524,531l-163,0l-104,-430l-95,430l-168,0l162,-531l54,0C181,-68 143,-98 39,-111l17,-111C223,-213 313,-135 355,-1z" /><glyph unicode="ȴ" horiz-adv-x="466" d="M352,245C288,245 250,215 219,147C216,158 215,173 215,190l0,569l-158,-17l0,-548C57,98 98,41 154,12l-32,-66l78,-30l32,71C249,-16 265,-17 282,-17C389,-17 473,31 473,131C473,202 420,245 352,245M305,97C296,97 287,97 280,98C302,146 314,160 336,160C353,160 363,150 363,133C363,109 342,97 305,97z" /><glyph unicode="ȵ" horiz-adv-x="770" d="M656,245C592,245 554,215 523,147C520,158 519,173 519,190l0,198C519,489 464,548 372,548C305,548 254,520 210,467l-12,64l-137,0l0,-531l158,0l0,363C246,407 276,432 311,432C342,432 361,417 361,361l0,-167C361,98 402,41 458,12l-32,-66l78,-30l32,71C553,-16 569,-17 586,-17C694,-17 777,31 777,131C777,202 725,245 656,245M609,97C600,97 592,97 585,98C606,146 618,160 640,160C657,160 667,150 667,133C667,109 646,97 609,97z" /><glyph unicode="ȶ" horiz-adv-x="485" d="M372,245C308,245 270,215 239,147C236,158 235,173 235,190l0,231l105,0l17,110l-122,0l0,133l-158,-18l0,-115l-75,0l0,-110l75,0l0,-227C77,96 117,40 173,11l-31,-65l78,-30l31,70C268,-16 284,-17 301,-17C409,-17 493,31 493,131C493,202 440,245 372,245M324,97C315,97 307,97 300,98C321,146 334,160 356,160C373,160 383,150 383,133C383,109 362,97 324,97z" /><glyph unicode="ȷ" horiz-adv-x="280" d="M219,531l-158,0l0,-481C61,-47 21,-75 -47,-106l53,-115C130,-176 219,-113 219,60z" /><glyph unicode="ȸ" horiz-adv-x="865" d="M650,548C592,548 545,521 513,476l0,283l-158,-17l0,-258C323,527 280,548 235,548C114,548 32,431 32,267C32,95 99,-17 224,-17C287,-17 334,18 365,61l8,-61l122,0l9,59C533,12 578,-17 632,-17C753,-17 833,101 833,265C833,443 765,548 650,548M274,99C232,99 196,134 196,266C196,385 232,433 278,433C308,433 333,415 355,382l0,-224C330,119 302,99 274,99M590,98C557,98 533,120 513,157l0,219C534,408 560,432 594,432C635,432 669,400 669,265C669,141 631,98 590,98z" /><glyph unicode="ȹ" horiz-adv-x="865" d="M645,548C590,548 544,527 502,468l-8,63l-120,0l-7,-59C331,526 286,548 239,548C115,548 32,431 32,267C32,95 99,-17 222,-17C280,-17 324,9 355,48l0,-270l158,17l0,256C545,3 591,-17 636,-17C753,-17 833,103 833,267C833,439 772,548 645,548M272,99C232,99 196,134 196,266C196,385 232,433 278,433C308,433 331,416 355,375l0,-217C330,119 302,99 272,99M588,99C559,99 535,115 513,154l0,220C536,409 566,432 596,432C640,432 669,397 669,265C669,146 632,99 588,99z" /><glyph unicode="Ⱥ" horiz-adv-x="590" d="M444,0l160,0l-188,622l32,120l-57,14l-17,-63l-178,0l-209,-693l156,0l38,149l50,0l-56,-210l58,-13l59,223l114,0M209,261l84,329l27,-104l-60,-225M321,261l29,108l27,-108z" /><glyph unicode="Ȼ" horiz-adv-x="575" d="M567,72l-73,94C453,135 413,110 358,110C340,110 324,113 309,118l120,455C447,565 464,554 481,541l78,93C529,660 497,679 461,692l13,50l-57,14l-13,-50C386,709 368,710 348,710C168,710 33,580 33,348C33,171 104,55 218,8l-18,-69l58,-13l17,64C299,-15 324,-17 350,-17C446,-17 521,26 567,72M205,348C205,518 267,589 356,589C362,589 367,589 372,588l-115,-434C224,191 205,255 205,348z" /><glyph unicode="ȼ" horiz-adv-x="479" d="M303,108C295,108 287,109 280,110l81,306C376,409 391,401 406,389l68,94C449,504 422,521 392,531l15,56l-55,14l-15,-56C323,547 308,548 292,548C133,548 32,430 32,261C32,132 91,38 191,0l-16,-61l56,-13l16,60C262,-16 278,-17 295,-17C368,-17 425,7 474,46l-69,98C367,120 341,108 303,108M198,262C198,381 237,427 305,427l-77,-288C209,162 198,201 198,262z" /><glyph unicode="Ƚ" horiz-adv-x="530" d="M246,130l0,172l78,0l0,122l-78,0l0,269l-164,0l0,-269l-76,0l0,-122l76,0l0,-302l417,0l17,130z" /><glyph unicode="Ⱦ" horiz-adv-x="540" d="M523,573l16,120l-48,0l19,41l-50,24l-30,-65l-421,0l0,-120l189,0l0,-379l-114,-245l50,-23l64,138l0,-64l144,0l0,373l93,200M342,504l0,69l32,0z" /><glyph unicode="ȿ" horiz-adv-x="481" d="M377,-106C318,-106 309,-58 242,-17C362,-15 464,49 464,158C464,253 405,297 300,327C205,355 191,367 191,395C191,419 212,435 255,435C301,435 345,420 386,394l58,89C395,523 326,548 249,548C115,548 32,477 32,386C32,304 84,250 189,220C285,193 301,182 301,145C301,112 272,96 226,96C172,96 123,115 75,148l-67,-86C16,56 25,50 33,45C179,-62 196,-221 357,-221C406,-221 439,-207 461,-191l-32,96C414,-101 400,-106 377,-106z" /><glyph unicode="ɀ" horiz-adv-x="437" d="M383,-221C433,-221 465,-207 487,-191l-32,96C439,-101 426,-106 401,-106C311,-106 310,33 161,86l275,334l0,111l-402,0l0,-119l220,0l-241,-300l0,-112C227,-17 194,-221 383,-221z" /><glyph unicode="Ɂ" horiz-adv-x="509" d="M147,0l164,0l0,279l25,9C429,323 489,376 489,493C489,622 395,710 241,710C146,710 69,679 4,618l79,-83C129,573 170,591 219,591C283,591 319,550 319,485C319,404 282,368 202,345l-55,-15z" /><glyph unicode="ɂ" horiz-adv-x="463" d="M111,0l158,0l0,150l28,9C379,186 435,235 435,337C435,461 343,548 200,548C113,548 51,517 -4,464l76,-80C107,413 136,430 184,430C237,430 271,393 271,335C271,270 231,236 163,217l-52,-14z" /><glyph unicode="Ƀ" horiz-adv-x="631" d="M448,367C512,382 576,428 576,516C576,646 461,693 276,693l-197,0l0,-438l-65,0l0,-80l65,0l0,-175l224,0C477,0 605,44 605,202C605,314 526,352 448,367M291,577C371,577 409,558 409,500C409,442 372,416 304,416l-61,0l0,161M304,119l-61,0l0,56l115,0l0,80l-115,0l0,52l73,0C387,307 435,281 435,211C435,135 381,119 304,119z" /><glyph unicode="Ʉ" horiz-adv-x="681" d="M668,592l-56,0l0,101l-165,0l0,-101l-213,0l0,101l-164,0l0,-101l-57,0l0,-92l57,0l0,-270C70,84 159,-17 340,-17C521,-17 612,90 612,230l0,270l56,0M447,237C447,148 415,105 340,105C266,105 234,148 234,237l0,263l213,0z" /><glyph unicode="Ʌ" horiz-adv-x="590" d="M395,693l-199,0l-209,-693l170,0l137,574l136,-574l174,0z" /><glyph unicode="Ɇ" horiz-adv-x="526" d="M337,295l105,0l0,115l-75,0l44,166l62,0l17,117l-48,0l13,49l-58,14l-17,-63l-315,0l0,-693l132,0l-16,-61l58,-13l20,74l231,0l0,118l-200,0M229,576l120,0l-43,-166l-77,0M229,295l46,0l-46,-174z" /><glyph unicode="ɇ" horiz-adv-x="554" d="M522,222C524,238 525,259 525,276C525,408 470,498 375,532l15,55l-53,14l-15,-56C309,547 295,548 280,548C119,548 32,422 32,263C32,141 81,46 178,5l-18,-66l53,-13l17,63C251,-15 274,-17 299,-17C385,-17 453,15 506,57l-65,88C395,113 357,98 314,98C294,98 276,100 261,104l31,118M284,446l11,0l-36,-135l-78,0C188,409 219,446 284,446M385,318l0,-7l-69,0l31,117C375,406 385,367 385,318M212,134C196,153 185,181 181,222l55,0z" /><glyph unicode="Ɉ" horiz-adv-x="337" d="M333,404l-77,0l0,289l-164,0l0,-289l-78,0l0,-122l78,0l0,-171C92,29 79,-18 -11,-53l44,-116C150,-131 256,-70 256,105l0,177l77,0z" /><glyph unicode="ɉ" horiz-adv-x="330" d="M165,631C220,631 259,670 259,721C259,772 220,811 165,811C110,811 72,772 72,721C72,670 110,631 165,631M325,307l-81,0l0,224l-158,0l0,-224l-80,0l0,-122l80,0l0,-135C86,-47 46,-75 -22,-106l53,-115C155,-176 244,-113 244,60l0,125l81,0z" /><glyph unicode="Ɋ" horiz-adv-x="673" d="M732,-82C709,-94 692,-103 662,-103C628,-103 608,-83 608,-42l0,735l-146,0l-6,-40C420,686 372,710 309,710C150,710 33,572 33,335C33,111 145,-17 306,-17C368,-17 411,4 444,36l0,-67C444,-159 524,-222 645,-222C710,-222 754,-203 786,-179M339,100C258,100 205,159 205,335C205,521 255,590 342,590C386,590 418,573 444,549l0,-408C415,114 380,100 339,100z" /><glyph unicode="ɋ" horiz-adv-x="595" d="M586,-93C579,-95 572,-97 560,-97C541,-97 533,-86 533,-65l0,596l-138,0l-8,-46C350,527 303,548 252,548C115,548 32,431 32,267C32,95 99,-17 234,-17C299,-17 344,11 375,51l0,-121C375,-168 429,-222 521,-222C559,-222 595,-214 617,-204M284,99C232,99 196,134 196,266C196,385 236,433 293,433C328,433 351,416 375,388l0,-229C350,119 321,99 284,99z" /><glyph unicode="Ɍ" horiz-adv-x="631" d="M634,0l-176,295C548,336 591,391 591,482C591,626 495,693 306,693l-227,0l0,-315l-65,0l0,-113l65,0l0,-265l164,0l0,265l64,0l142,-265M243,378l0,200l59,0C383,578 422,549 422,482C422,409 384,378 313,378z" /><glyph unicode="ɍ" horiz-adv-x="423" d="M372,546C312,546 259,503 235,430l-14,101l-137,0l0,-256l-78,0l0,-111l78,0l0,-164l158,0l0,164l82,0l0,111l-80,0C261,349 289,393 351,393C369,393 383,390 399,386l26,153C407,544 391,546 372,546z" /><glyph unicode="Ɏ" horiz-adv-x="594" d="M602,693l-167,0l-33,-78l-202,0l-33,78l-174,0l40,-78l-39,0l0,-92l86,0l135,-264l0,-259l165,0l0,260l135,263l87,0l0,92l-40,0M300,375l-62,148l125,0z" /><glyph unicode="ɏ" horiz-adv-x="541" d="M535,531l-163,0l-33,-137l-136,0l-30,137l-167,0l42,-137l-42,0l0,-90l69,0l92,-304l54,0C192,-68 154,-98 50,-111l17,-111C234,-213 324,-135 366,-1l97,305l70,0l0,90l-42,0M268,101l-45,203l94,0z" /><glyph unicode="ɐ" horiz-adv-x="547" d="M64,377l0,-206C64,48 130,-17 284,-17C344,-17 417,-3 484,22l-36,104C395,108 343,98 309,98C244,98 219,117 219,180l0,23l54,0C433,203 522,266 522,382C522,479 455,548 349,548C286,548 227,527 189,469C164,521 123,540 61,545l-33,-103C53,433 64,418 64,377M303,435C342,435 364,410 364,368C364,315 330,290 258,290l-39,0l0,95C238,416 267,435 303,435z" /><glyph unicode="ɑ" horiz-adv-x="597" d="M530,178l0,353l-137,0l-9,-45C352,526 308,548 253,548C116,548 32,431 32,267C32,95 103,-17 237,-17C302,-17 357,16 392,64C415,21 456,-4 527,-17l46,114C542,112 530,131 530,178M281,99C232,99 196,134 196,266C196,385 233,433 288,433C323,433 348,416 372,389l0,-232C347,118 318,99 281,99z" /><glyph unicode="ɒ" horiz-adv-x="597" d="M360,548C295,548 240,515 205,467C182,510 141,535 70,548l-46,-114C55,419 67,400 67,353l0,-353l137,0l9,45C245,5 289,-17 344,-17C481,-17 565,100 565,264C565,436 494,548 360,548M309,98C274,98 249,115 225,142l0,232C250,413 279,432 316,432C365,432 401,397 401,265C401,146 364,98 309,98z" /><glyph unicode="ɓ" horiz-adv-x="591" d="M359,548C304,548 251,521 219,477l0,95C219,622 237,642 283,642C306,642 336,637 366,624l43,101C370,745 319,759 264,759C128,759 61,680 61,578l0,-578l140,0l8,51C241,9 289,-17 348,-17C480,-17 559,101 559,265C559,443 490,548 359,548M303,98C269,98 239,117 219,149l0,221C242,409 272,432 309,432C359,432 395,400 395,265C395,141 357,98 303,98z" /><glyph unicode="ɔ" horiz-adv-x="476" d="M184,-17C347,-17 444,95 444,265C444,446 348,548 191,548C116,548 56,525 10,486l67,-89C112,421 145,432 182,432C248,432 280,383 280,265C280,150 245,99 176,99C135,100 109,112 76,135l-71,-92C52,5 108,-17 184,-17z" /><glyph unicode="ɕ" horiz-adv-x="501" d="M367,255C297,255 252,224 219,148C207,172 198,209 198,262C198,381 237,427 305,427C341,427 372,415 405,388l69,95C423,526 366,548 292,548C133,548 32,430 32,261C32,149 77,62 157,19l-34,-73l77,-30l34,74C253,-14 274,-17 304,-17C409,-17 495,32 495,135C495,212 439,255 367,255M324,97C308,97 296,99 283,102C306,152 325,169 353,169C374,169 384,158 384,139C384,110 362,97 324,97z" /><glyph unicode="ɖ" horiz-adv-x="595" d="M660,-87C636,-99 619,-107 589,-107C554,-107 533,-87 533,-46l0,788l-158,17l0,-261C344,529 301,548 252,548C115,548 32,431 32,267C32,95 99,-17 234,-17C299,-17 344,11 375,49l0,-80C375,-158 454,-222 571,-222C637,-222 681,-203 713,-179M284,99C232,99 196,134 196,266C196,385 236,433 293,433C328,433 351,416 375,388l0,-229C350,119 321,99 284,99z" /><glyph unicode="ɗ" horiz-adv-x="595" d="M563,759C439,759 375,684 375,576l0,-78C344,529 301,548 252,548C115,548 32,431 32,267C32,95 99,-17 234,-17C306,-17 354,18 385,62l8,-62l140,0l0,581C533,624 550,642 584,642C611,642 629,635 652,623l46,98C667,741 624,759 563,759M284,99C232,99 196,134 196,266C196,385 236,433 293,433C328,433 351,416 375,388l0,-229C350,119 321,99 284,99z" /><glyph unicode="ɘ" horiz-adv-x="554" d="M274,548C124,548 29,448 29,276C29,259 30,235 32,219l329,0C351,124 309,98 244,98C197,98 159,113 113,145l-65,-88C101,15 169,-17 255,-17C432,-17 522,97 522,263C522,430 445,548 274,548M184,321C185,393 208,443 273,443C330,443 356,414 362,314l-178,0z" /><glyph unicode="ə" horiz-adv-x="557" d="M270,548C182,548 117,522 65,480l65,-88C177,424 217,436 265,436C330,436 367,398 372,312l-340,0C30,295 29,272 29,255C29,83 126,-17 274,-17C437,-17 525,105 525,266C525,433 446,548 270,548M274,95C212,95 179,139 178,210l0,7l194,0C367,127 333,95 274,95z" /><glyph unicode="ɚ" horiz-adv-x="826" d="M795,433C775,424 759,417 732,417C701,417 680,433 680,472l0,59l-131,0l-96,-50C412,524 351,548 270,548C182,548 117,522 65,480l65,-88C177,424 217,436 265,436C330,436 367,398 372,312l-340,0C30,295 29,272 29,255C29,83 126,-17 274,-17C437,-17 525,105 525,266C525,317 518,363 502,403l54,31l1,-6C567,354 619,307 714,307C770,307 811,325 839,344M274,95C212,95 179,139 178,210l0,7l194,0C367,127 333,95 274,95z" /><glyph unicode="ɛ" horiz-adv-x="477" d="M260,548C134,548 49,493 49,402C49,340 88,299 171,283C78,272 29,228 29,147C29,39 126,-17 258,-17C347,-17 421,7 474,47l-66,89C361,108 324,96 280,96C221,96 192,121 192,160C192,200 215,222 276,222l59,0l15,102l-67,0C234,324 209,348 209,383C209,419 237,439 281,439C324,439 357,427 394,406l65,82C403,529 338,548 260,548z" /><glyph unicode="ɜ" horiz-adv-x="494" d="M231,548C144,548 78,527 19,486l73,-83C128,426 162,439 209,439C250,439 280,423 280,385C280,344 249,324 198,324l-62,0l-9,-102l83,0C268,222 302,205 302,162C302,115 268,96 214,96C162,96 125,106 77,135l-74,-88C59,6 129,-17 219,-17C362,-17 465,39 465,153C465,231 415,270 323,283C400,303 439,341 439,401C439,494 346,548 231,548z" /><glyph unicode="ɝ" horiz-adv-x="758" d="M727,433C707,424 691,417 664,417C633,417 612,433 612,472l0,59l-131,0l-79,-41C365,527 302,548 231,548C144,548 78,527 19,486l73,-83C128,426 162,439 209,439C250,439 280,423 280,385C280,344 249,324 198,324l-62,0l-9,-102l83,0C268,222 302,205 302,162C302,115 268,96 214,96C162,96 125,106 77,135l-74,-88C59,6 129,-17 219,-17C362,-17 465,39 465,153C465,231 415,270 323,283C400,303 439,341 439,401l0,5l49,28l1,-6C499,354 551,307 646,307C702,307 743,325 771,344z" /><glyph unicode="ɞ" horiz-adv-x="570" d="M298,-17C442,-17 541,42 541,153C541,231 491,270 399,283C476,303 515,341 515,400C515,491 425,548 297,548C129,548 32,436 32,266C32,87 125,-17 298,-17M297,96C216,96 190,145 190,266C190,387 223,439 293,439C333,439 359,419 359,384C359,344 329,324 281,324l-13,0l-9,-102l34,0C348,222 381,207 381,163C381,117 350,96 297,96z" /><glyph unicode="ɟ" horiz-adv-x="330" d="M325,307l-81,0l0,224l-158,0l0,-224l-80,0l0,-122l80,0l0,-135C86,-47 46,-75 -22,-106l53,-115C155,-176 244,-113 244,60l0,125l81,0z" /><glyph unicode="ɠ" horiz-adv-x="591" d="M560,759C436,759 371,684 371,576l0,-78C336,530 294,548 249,548C112,548 29,431 29,277C29,115 95,3 230,3C295,3 341,31 371,68l0,-72C371,-74 340,-107 260,-107C202,-107 160,-91 128,-75l-48,-97C117,-196 176,-222 273,-222C436,-222 529,-147 529,16l0,565C529,624 547,642 581,642C607,642 626,635 649,623l46,98C663,741 620,759 560,759M281,119C228,119 192,154 192,276C192,385 232,433 289,433C323,433 347,416 371,389l0,-212C346,138 317,119 281,119z" /><glyph unicode="ɡ" horiz-adv-x="587" d="M392,531l-9,-46C346,526 300,548 242,548C115,548 29,431 29,277C29,115 97,3 233,3C297,3 341,31 371,68l0,-67C371,-74 334,-106 251,-106C195,-106 142,-90 108,-72l-48,-98C100,-194 171,-222 265,-222C431,-222 529,-143 529,20l0,511M281,119C228,119 192,154 192,276C192,385 228,433 285,433C320,433 347,416 371,388l0,-211C346,138 317,119 281,119z" /><glyph unicode="ɢ" horiz-adv-x="560" d="M306,548C151,548 32,442 32,268C32,79 120,-15 295,-15C385,-15 462,14 518,48l0,263l-231,0l15,-104l68,0l0,-96C348,101 324,97 297,97C233,97 195,136 195,268C195,378 241,436 316,436C363,436 398,421 437,393l76,83C462,518 401,548 306,548z" /><glyph unicode="ɣ" horiz-adv-x="518" d="M524,531l-163,0l-99,-348l-100,348l-168,0l191,-450C135,1 115,-48 115,-101C115,-174 161,-222 262,-222C363,-222 408,-173 408,-100C408,-40 385,9 338,82M291,-93C291,-112 281,-124 262,-124C243,-124 233,-113 233,-93C233,-67 245,-40 262,-5C279,-40 291,-66 291,-93z" /><glyph unicode="ɤ" horiz-adv-x="560" d="M468,548C390,548 356,507 320,423l-40,-92l-40,92C205,507 170,548 92,548C48,548 19,536 -9,518l45,-91C48,433 57,437 76,437C96,437 107,428 122,399l81,-156C164,179 145,141 145,95C145,31 190,-17 280,-17C372,-17 414,32 414,95C414,146 395,183 356,242l82,157C453,427 464,437 484,437C502,437 512,433 524,427l45,91C540,536 512,548 468,548M304,103C304,86 296,78 280,78C264,78 255,86 255,103C255,124 266,142 280,168C294,142 304,124 304,103z" /><glyph unicode="ɥ" horiz-adv-x="573" d="M355,531l0,-363C327,124 297,100 263,100C233,100 212,115 212,171l0,360l-158,0l0,-388C54,43 110,-17 202,-17C264,-17 312,8 355,57l0,-262l158,-17l0,753z" /><glyph unicode="ɦ" horiz-adv-x="573" d="M372,548C309,548 262,523 219,474l0,98C219,622 237,642 283,642C306,642 336,637 366,624l43,101C370,745 319,759 264,759C128,759 61,680 61,578l0,-578l158,0l0,364C246,407 276,432 311,432C341,432 361,417 361,361l0,-361l158,0l0,388C519,489 463,548 372,548z" /><glyph unicode="ɧ" horiz-adv-x="575" d="M519,1l0,387C519,489 463,548 372,548C309,548 262,523 219,474l0,98C219,622 237,642 283,642C306,642 336,637 366,624l43,101C370,745 319,759 264,759C128,759 61,680 61,578l0,-578l158,0l0,364C246,407 276,432 311,432C341,432 361,417 361,361l0,-361l1,0l0,-46C362,-87 341,-107 306,-107C276,-107 259,-99 235,-87l-53,-92C214,-203 258,-222 324,-222C441,-222 520,-158 520,-31l0,32z" /><glyph unicode="ɨ" horiz-adv-x="330" d="M164,631C219,631 258,670 258,721C258,772 219,811 164,811C109,811 71,772 71,721C71,670 109,631 164,631M324,347l-82,0l0,184l-158,0l0,-184l-78,0l0,-122l78,0l0,-225l158,0l0,225l82,0z" /><glyph unicode="ɩ" horiz-adv-x="300" d="M200,-17C239,-17 273,-9 296,1l-30,111C257,110 250,108 240,108C221,108 212,119 212,141l0,390l-158,0l0,-396C54,38 108,-17 200,-17z" /><glyph unicode="ɪ" horiz-adv-x="337" d="M322,418l0,113l-306,0l0,-113l73,0l0,-304l-73,0l0,-114l306,0l0,114l-75,0l0,304z" /><glyph unicode="ɫ" horiz-adv-x="458" d="M310,276C394,276 439,339 470,400l-83,41C369,417 352,393 318,393C313,393 309,394 304,395l0,364l-158,-17l0,-288C63,452 18,387 -12,327l84,-42C89,311 106,336 141,336l5,0l0,-201C146,38 199,-17 292,-17C330,-17 364,-9 388,1l-31,112C350,110 342,108 331,108C312,108 304,119 304,141l0,135z" /><glyph unicode="ɬ" horiz-adv-x="427" d="M341,108C322,108 313,119 313,141l0,104l2,0C345,247 375,252 399,259l-12,80C363,334 341,331 315,329l-2,0l0,430l-158,-17l0,-263C146,480 134,482 121,482C50,482 -4,441 -4,367C-4,294 46,245 155,241l0,-106C155,38 209,-17 301,-17C340,-17 374,-9 397,1l-30,112C360,110 351,108 341,108M100,368C100,389 112,401 133,401C141,401 148,400 155,399l0,-72C120,328 100,340 100,368z" /><glyph unicode="ɭ" horiz-adv-x="281" d="M346,-87C322,-99 305,-107 275,-107C240,-107 219,-87 219,-46l0,805l-158,-17l0,-773C61,-158 140,-222 257,-222C323,-222 367,-203 399,-179z" /><glyph unicode="ɮ" horiz-adv-x="700" d="M472,212l184,211l0,108l-444,0l0,228l-158,-17l0,-607C54,38 108,-17 200,-17C239,-17 273,-9 296,1l-30,112C259,110 250,108 240,108C221,108 212,119 212,141l0,272l265,0l-171,-201l0,-92l93,0C482,120 525,93 525,18C525,-63 478,-101 409,-101C360,-101 324,-87 284,-55l-74,-92C261,-194 329,-222 419,-222C588,-222 688,-123 688,8C688,139 608,204 472,212z" /><glyph unicode="ɯ" horiz-adv-x="841" d="M622,531l0,-363C599,124 574,100 541,100C516,100 496,115 496,171l0,360l-158,0l0,-363C314,124 290,100 257,100C233,100 212,115 212,171l0,360l-158,0l0,-388C54,43 111,-17 193,-17C261,-17 310,12 352,67C372,14 418,-17 477,-17C542,-17 590,10 631,62l11,-62l138,0l0,531z" /><glyph unicode="ɰ" horiz-adv-x="843" d="M780,102l0,429l-158,0l0,-363C599,124 574,100 541,100C516,100 496,115 496,171l0,360l-158,0l0,-363C314,124 290,100 257,100C233,100 212,115 212,171l0,360l-158,0l0,-388C54,43 111,-17 193,-17C261,-17 310,12 352,67C372,14 418,-17 477,-17C539,-17 586,8 625,55l0,-260l158,-17l0,324z" /><glyph unicode="ɱ" horiz-adv-x="842" d="M786,1l0,387C786,489 730,548 648,548C580,548 531,520 489,464C468,518 423,548 364,548C299,548 250,521 210,468l-12,63l-137,0l0,-531l158,0l0,363C242,407 267,432 300,432C324,432 345,417 345,361l0,-361l158,0l0,363C526,407 550,432 584,432C608,432 628,417 628,361l0,-361l2,0l0,-46C630,-87 608,-107 573,-107C543,-107 526,-98 503,-86l-54,-93C481,-203 526,-222 590,-222C708,-222 788,-158 788,-31l0,32z" /><glyph unicode="ɲ" horiz-adv-x="573" d="M372,548C305,548 254,520 210,467l-12,64l-137,0l0,-531l1,0l0,-46C62,-87 41,-107 5,-107C-24,-107 -41,-99 -65,-87l-53,-92C-86,-203 -42,-222 24,-222C141,-222 220,-158 220,-31l0,32l-1,0l0,362C246,407 276,432 311,432C342,432 361,417 361,361l0,-361l158,0l0,388C519,489 464,548 372,548z" /><glyph unicode="ɳ" horiz-adv-x="577" d="M647,-87C623,-99 607,-107 577,-107C542,-107 520,-87 520,-46l0,47l-1,0l0,387C519,489 464,548 372,548C305,548 254,520 210,467l-12,64l-137,0l0,-531l158,0l0,363C246,407 276,432 311,432C342,432 361,417 361,361l0,-361l1,0l0,-31C362,-158 442,-222 559,-222C624,-222 669,-203 701,-179z" /><glyph unicode="ɴ" horiz-adv-x="585" d="M524,531l-139,0l0,-175C385,258 396,205 408,137l-159,394l-188,0l0,-531l140,0l0,150C201,256 188,331 177,394l158,-394l189,0z" /><glyph unicode="ɵ" horiz-adv-x="584" d="M292,548C130,548 32,436 32,266C32,87 131,-17 292,-17C454,-17 552,95 552,265C552,444 454,548 292,548M292,434C350,434 382,399 391,314l-198,0C202,397 234,434 292,434M292,97C232,97 199,136 192,226l200,0C385,137 352,97 292,97z" /><glyph unicode="ɶ" horiz-adv-x="768" d="M543,216l161,0l0,106l-163,0C533,359 518,394 497,422l232,0l16,109l-353,0C358,543 329,548 292,548C130,548 32,436 32,266C32,87 131,-17 292,-17C326,-17 358,-11 388,0l355,0l0,110l-248,0C518,138 535,174 543,216M292,99C228,99 196,148 196,266C196,381 228,432 292,432C352,432 388,385 388,266C388,150 353,99 292,99z" /><glyph unicode="ɷ" horiz-adv-x="764" d="M383,548C164,548 32,443 32,242C32,61 114,-17 229,-17C314,-17 360,17 382,101C401,18 451,-17 535,-17C648,-17 732,63 732,242C732,443 601,548 383,548M511,99C478,99 456,117 456,187l0,131l-147,-19l0,-112C309,112 286,99 254,99C211,99 187,141 187,249C187,364 237,439 383,439C528,439 578,363 578,250C578,134 549,99 511,99z" /><glyph unicode="ɸ" horiz-adv-x="663" d="M637,268C637,437 536,514 409,526l0,232l-158,-16l0,-216C127,514 26,433 26,264C26,95 127,17 252,5l-1,-227l158,17l1,210C536,18 637,98 637,268M396,106l0,319C451,419 482,375 482,268C482,164 454,114 396,106M180,264C180,370 208,417 265,425l0,-319C211,115 180,164 180,264z" /><glyph unicode="ɹ" horiz-adv-x="400" d="M181,531l0,-267C163,185 136,138 71,138C54,138 40,141 23,145l-25,-153C16,-13 31,-15 51,-15C112,-15 164,29 188,103l14,-103l137,0l0,531z" /><glyph unicode="ɺ" horiz-adv-x="400" d="M181,759l0,-491C164,187 137,138 71,138C53,138 40,141 23,146l-25,-153C15,-12 31,-15 51,-15C112,-15 164,30 188,103l13,-103l138,0l0,742z" /><glyph unicode="ɻ" horiz-adv-x="401" d="M466,-87C442,-99 425,-107 395,-107C360,-107 339,-87 339,-46l0,577l-158,0l0,-263C164,187 137,138 71,138C53,138 40,141 23,146l-25,-153C15,-12 31,-15 51,-15C107,-15 155,22 181,85l0,-116C181,-158 260,-222 377,-222C443,-222 487,-203 519,-179z" /><glyph unicode="ɼ" horiz-adv-x="400" d="M349,546C288,546 236,502 212,428l-14,103l-137,0l0,-531l1,0l0,-222l158,17l0,206l-1,0l0,266C237,346 264,393 329,393C346,393 360,390 377,386l25,153C384,544 369,546 349,546z" /><glyph unicode="ɽ" horiz-adv-x="401" d="M277,-107C241,-107 220,-87 220,-46l0,47l-1,0l0,266C237,346 264,393 329,393C346,393 360,390 377,386l25,153C384,544 369,546 349,546C288,546 236,502 212,428l-14,103l-137,0l0,-531l1,0l0,-31C62,-158 141,-222 258,-222C324,-222 368,-203 400,-179l-53,92C323,-99 306,-107 277,-107z" /><glyph unicode="ɾ" horiz-adv-x="390" d="M251,549C134,549 54,486 54,359l0,-359l158,0l0,373C212,415 234,434 269,434C299,434 315,426 339,414l53,93C361,530 316,549 251,549z" /><glyph unicode="ɿ" horiz-adv-x="390" d="M139,549C74,549 29,530 -2,507l53,-93C75,426 91,434 121,434C156,434 178,415 178,373l0,-373l158,0l0,359C336,486 256,549 139,549z" /><glyph unicode="ʀ" horiz-adv-x="529" d="M359,0l166,0l-130,206C457,235 486,291 486,356C486,475 401,531 252,531l-191,0l0,-531l152,0l0,183l43,0M213,430l35,0C303,430 332,413 332,357C332,298 305,279 253,279l-40,0z" /><glyph unicode="ʁ" horiz-adv-x="529" d="M396,326l129,205l-166,0l-103,-183l-43,0l0,183l-152,0l0,-531l191,0C401,0 486,56 486,179C486,245 457,298 396,326M248,102l-35,0l0,151l40,0C305,253 332,233 332,178C332,119 303,102 248,102z" /><glyph unicode="ʂ" horiz-adv-x="480" d="M244,-17C363,-17 464,48 464,158C464,253 405,297 300,327C205,355 191,367 191,395C191,419 212,435 260,435C301,435 345,420 386,393l58,90C395,523 326,548 249,548C115,548 32,477 32,386C32,304 84,250 189,220C285,193 301,182 301,145C301,114 272,96 223,96C163,96 116,112 71,135l-65,-73l0,-93C6,-158 80,-221 200,-221C263,-221 313,-202 345,-179l-54,94C266,-98 245,-106 210,-106C169,-106 145,-88 145,-45l0,44C173,-12 205,-17 244,-17z" /><glyph unicode="ʃ" horiz-adv-x="282" d="M250,759C127,759 62,684 62,576l0,-622C62,-87 41,-107 5,-107C-24,-107 -41,-99 -65,-87l-53,-92C-86,-203 -42,-222 24,-222C141,-222 220,-158 220,-31l0,612C220,624 238,642 272,642C298,642 316,635 339,623l46,98C354,741 311,759 250,759z" /><glyph unicode="ʄ" horiz-adv-x="331" d="M246,110l0,471C246,624 264,642 298,642C324,642 343,635 366,623l45,98C380,741 337,759 277,759C153,759 88,684 88,576l0,-466l-84,0l0,-110l82,0C79,-62 41,-89 -18,-114l51,-107C141,-182 223,-128 242,0l81,0l0,110z" /><glyph unicode="ʅ" horiz-adv-x="485" d="M441,118C417,106 400,98 370,98C335,98 314,117 314,159l0,207C314,473 249,548 126,548C65,548 22,531 -9,511l46,-98C60,425 78,432 104,432C138,432 156,413 156,370l0,-197C156,47 235,-17 352,-17C418,-17 462,2 494,25z" /><glyph unicode="ʆ" horiz-adv-x="339" d="M277,30l0,551C277,624 294,642 328,642C355,642 373,635 396,623l46,98C411,741 368,759 307,759C183,759 119,684 119,576l0,-553C106,24 90,25 76,25C-19,25 -81,-21 -81,-104C-81,-177 -28,-222 67,-222C175,-222 240,-176 265,-79C293,-88 324,-99 349,-110l28,66C344,-27 314,-15 276,-4C277,7 277,18 277,30M57,-139C28,-139 13,-125 13,-99C13,-67 34,-51 76,-51C92,-51 107,-52 118,-53C115,-115 97,-139 57,-139z" /><glyph unicode="ʇ" horiz-adv-x="386" d="M384,110l-75,0l0,246C309,481 252,547 135,548C87,548 31,534 -9,506l53,-100C65,418 83,423 101,423C134,423 151,405 151,354l0,-244l-105,0l-17,-110l122,0l0,-133l158,18l0,115l75,0z" /><glyph unicode="ʈ" horiz-adv-x="386" d="M362,-87C338,-99 321,-107 291,-107C256,-107 235,-87 235,-46l0,467l105,0l17,110l-122,0l0,133l-158,-18l0,-115l-75,0l0,-110l75,0l0,-452C77,-158 156,-222 273,-222C339,-222 383,-203 415,-179z" /><glyph unicode="ʉ" horiz-adv-x="616" d="M607,394l-79,0l0,137l-158,0l0,-137l-137,0l0,137l-158,0l0,-137l-72,0l0,-98l72,0l0,-146C75,47 124,-17 224,-17C294,-17 346,11 384,67l7,-67l137,0l0,296l79,0M370,162C347,122 317,100 285,100C251,100 233,116 233,170l0,126l137,0z" /><glyph unicode="ʊ" horiz-adv-x="583" d="M292,-17C457,-17 551,92 551,225C551,317 511,378 449,422l87,0l0,109l-204,0l0,-101C366,389 389,331 389,242C389,145 356,96 292,96C227,96 194,145 194,241C194,333 218,390 250,430l0,101l-203,0l0,-109l88,0C72,378 32,317 32,225C32,91 128,-17 292,-17z" /><glyph unicode="ʋ" horiz-adv-x="565" d="M263,-17C402,-17 523,59 523,252l0,138C523,497 466,548 376,548C342,548 314,543 290,533l24,-107C321,428 329,429 337,429C356,429 365,418 365,397l0,-151C365,133 322,99 274,99C234,99 212,122 212,183l0,348l-158,0l0,-357C54,43 150,-17 263,-17z" /><glyph unicode="ʌ" horiz-adv-x="513" d="M-6,0l161,0l98,411l94,-411l172,0l-171,531l-187,0z" /><glyph unicode="ʍ" horiz-adv-x="749" d="M5,0l151,0l64,413l73,-413l154,0l83,413l55,-413l160,0l-113,531l-187,0l-70,-390l-71,390l-189,0z" /><glyph unicode="ʎ" horiz-adv-x="518" d="M-6,0l163,0l104,431l95,-431l168,0l-162,531l-57,0C331,605 369,638 476,651l-14,107C297,749 207,673 163,532z" /><glyph unicode="ʏ" horiz-adv-x="498" d="M510,531l-163,0l-95,-238l-96,238l-168,0l182,-340l0,-191l158,0l0,192z" /><glyph unicode="ʐ" horiz-adv-x="459" d="M568,-86C544,-98 528,-107 498,-107C463,-107 441,-87 441,-46l0,166l-245,0l240,300l0,111l-402,0l0,-119l220,0l-241,-300l0,-112l278,0l0,-31C291,-158 366,-222 481,-222C545,-222 590,-203 621,-179z" /><glyph unicode="ʑ" horiz-adv-x="544" d="M436,266C362,266 305,227 276,120l-87,0l247,306l0,105l-402,0l0,-119l220,0l-241,-300l0,-112l246,0C255,-38 254,-83 254,-128l91,0C345,-81 344,-37 350,0C493,-1 560,52 560,148C560,223 507,266 436,266M373,120l-5,0C379,167 399,183 424,183C442,183 452,173 452,156C452,128 426,120 373,120M356,38l-2,-8l1,6z" /><glyph unicode="ʒ" horiz-adv-x="505" d="M276,213l184,210l0,108l-433,0l0,-118l255,0l-171,-201l0,-92l92,0C286,120 329,93 329,19C329,-63 283,-101 214,-101C158,-101 118,-82 71,-39l-83,-80C41,-183 115,-222 223,-222C392,-222 492,-123 492,9C492,139 413,204 276,213z" /><glyph unicode="ʓ" horiz-adv-x="505" d="M492,12C492,145 413,210 276,218l184,205l0,108l-433,0l0,-118l256,0l-172,-195l0,-92l92,0C286,126 329,100 329,21C329,-37 310,-73 266,-90l-4,8C218,20 177,56 102,56C30,56 -25,11 -25,-67C-25,-167 57,-222 193,-222C208,-222 222,-221 236,-220l32,-70l79,30l-25,55C436,-171 492,-90 492,12M84,-60C84,-41 96,-29 116,-29C143,-29 160,-47 185,-101C108,-101 84,-90 84,-60z" /><glyph unicode="ʔ" horiz-adv-x="478" d="M130,0l158,0l0,302l19,8C393,343 459,397 459,522C459,666 361,759 212,759C119,759 47,728 -16,667l78,-80C103,624 141,642 189,642C256,642 296,599 296,519C296,433 252,391 173,367l-43,-13z" /><glyph unicode="ʕ" horiz-adv-x="478" d="M348,0l0,354l-43,13C226,391 182,433 182,518C182,598 225,642 291,642C341,642 377,623 416,587l78,80C432,727 363,759 271,759C124,759 19,666 19,522C19,397 85,343 171,310l19,-8l0,-302z" /><glyph unicode="ʖ" horiz-adv-x="512" d="M141,742l0,-353l56,-12C280,356 318,309 318,223C318,143 278,100 211,100C163,100 125,118 83,155l-78,-80C68,15 140,-17 232,-17C381,-17 480,78 480,222C480,345 418,407 331,433l-32,7l0,318z" /><glyph unicode="ʗ" horiz-adv-x="488" d="M314,548C142,548 42,404 42,160C42,-84 138,-221 312,-221C377,-221 435,-197 483,-158l-69,98C379,-84 353,-96 317,-96C250,-96 207,-34 207,160C207,355 249,427 322,427C357,427 385,415 418,392l65,91C436,526 380,548 314,548z" /><glyph unicode="ʘ" horiz-adv-x="798" d="M399,710C182,710 33,562 33,347C33,123 182,-17 399,-17C616,-17 764,131 764,347C764,571 616,710 399,710M399,600C523,600 610,523 610,347C610,170 530,93 399,93C271,93 188,170 188,347C188,523 270,600 399,600M401,425C353,425 320,391 320,347C320,303 353,269 401,269C450,269 483,303 483,347C483,391 450,425 401,425z" /><glyph unicode="ʙ" horiz-adv-x="555" d="M387,292C462,305 499,345 499,404C499,501 411,548 271,548C203,548 137,540 61,526l0,-526l225,0C425,0 523,48 523,161C523,235 481,281 387,292M268,447C318,447 344,427 344,386C344,342 316,323 275,323l-56,0l0,122C237,447 251,447 268,447M281,104l-62,0l0,136l63,0C338,240 361,218 361,175C361,123 330,104 281,104z" /><glyph unicode="ʚ" horiz-adv-x="570" d="M272,-17C445,-17 538,87 538,266C538,436 441,548 273,548C145,548 55,491 55,400C55,341 94,303 171,283C79,270 29,231 29,153C29,42 128,-17 272,-17M273,96C220,96 189,117 189,163C189,207 222,222 277,222l34,0l-9,102l-13,0C241,324 211,344 211,384C211,419 237,439 277,439C347,439 380,387 380,266C380,145 354,96 273,96z" /><glyph unicode="ʛ" horiz-adv-x="560" d="M543,759C430,759 374,696 374,588l0,-53C350,544 325,548 292,548C151,548 32,442 32,268C32,81 120,-15 297,-15C388,-15 464,12 518,48l0,263l-231,0l15,-104l68,0l0,-96C348,101 324,97 297,97C233,97 195,136 195,268C195,378 240,436 318,436C370,436 403,423 445,401l68,75l0,105C513,624 531,642 565,642C591,642 609,635 632,623l46,98C647,741 604,759 543,759z" /><glyph unicode="ʜ" horiz-adv-x="584" d="M365,0l158,0l0,531l-158,0l0,-203l-146,0l0,203l-158,0l0,-531l158,0l0,211l146,0z" /><glyph unicode="ʝ" horiz-adv-x="341" d="M198,631C253,631 292,670 292,721C292,772 253,811 198,811C143,811 105,772 105,721C105,670 143,631 198,631M377,-44C344,-27 314,-15 276,-4C277,7 277,19 277,31l0,500l-158,0l0,-508C106,24 90,25 76,25C-19,25 -81,-21 -81,-104C-81,-177 -28,-222 67,-222C175,-222 240,-176 265,-79C293,-88 324,-99 349,-110M57,-139C28,-139 13,-125 13,-99C13,-67 34,-51 76,-51C92,-51 107,-52 118,-54C115,-114 97,-139 57,-139z" /><glyph unicode="ʞ" horiz-adv-x="551" d="M4,0l161,0l162,241l-158,290l-178,0l174,-297M332,-205l158,-17l0,753l-158,0z" /><glyph unicode="ʟ" horiz-adv-x="449" d="M219,531l-158,0l0,-531l363,0l16,122l-221,0z" /><glyph unicode="ʠ" horiz-adv-x="595" d="M563,759C439,759 375,684 375,576l0,-88C347,525 303,548 246,548C115,548 32,431 32,267C32,95 99,-17 234,-17C299,-17 344,11 375,51l0,-256l158,-17l0,803C533,624 550,642 584,642C611,642 629,635 652,623l46,98C667,741 624,759 563,759M284,99C232,99 196,134 196,266C196,385 236,433 293,433C328,433 351,416 375,388l0,-229C350,119 321,99 284,99z" /><glyph unicode="ʡ" horiz-adv-x="478" d="M307,310C393,343 459,397 459,522C459,666 361,759 212,759C119,759 47,728 -16,667l78,-80C103,624 141,642 189,642C256,642 296,599 296,519C296,433 252,391 173,367l-43,-13l0,-132l-67,0l0,-93l67,0l0,-129l158,0l0,129l97,0l0,93l-97,0l0,80z" /><glyph unicode="ʢ" horiz-adv-x="478" d="M291,642C341,642 377,623 416,587l78,80C432,727 363,759 271,759C124,759 19,666 19,522C19,397 85,343 171,310l19,-8l0,-80l-97,0l0,-93l97,0l0,-129l158,0l0,129l67,0l0,93l-67,0l0,132l-43,13C226,391 182,433 182,518C182,598 225,642 291,642z" /></font>
</svg>
